VERSION	0.00.00	1.03.00
FES_MODE	0
BPM_DEF	230.000	230.000	230.000	230.000
MET_DEF	4	4
RESOLUTION	384
CLK_DEF	384
COMPATIBLE_CODE	MA2

BPM	0	0	230.000
MET	0	0	4	4

TAP	3	0	0
TAP	3	0	7
STR	7	0	1
SI_	7	0	1	96	288	6
STR	9	0	5
SI_	9	0	5	96	288	2
STR	11	0	0
SI_	11	0	0	96	288	4
STR	13	0	7
SI_	13	0	7	96	288	3
TAP	15	0	1
TAP	15	96	1
TAP	15	192	1
TAP	16	0	3
TAP	16	96	3
TAP	16	192	3
TAP	17	0	5
TAP	17	96	5
TAP	17	192	5
TAP	18	0	7
TAP	18	96	7
TAP	18	192	7
TAP	19	0	5
TAP	19	96	5
TAP	19	192	5
TAP	20	0	3
TAP	20	96	3
TAP	20	192	3
TAP	21	0	1
TAP	21	96	1
TAP	21	192	1
TAP	22	0	7
TAP	22	96	7
TAP	22	192	7
HLD	23	0	2	576
HLD	23	0	5	576
TAP	25	0	0
TAP	25	96	0
TAP	25	192	0
TAP	26	0	1
TAP	26	192	2
TAP	27	0	3
TAP	27	192	4
TAP	28	0	5
TAP	28	96	5
TAP	28	192	4
TAP	28	192	5
TAP	29	0	7
TAP	29	96	7
TAP	29	192	7
TAP	30	0	6
TAP	30	192	5
TAP	31	0	4
TAP	31	192	3
TAP	32	0	2
TAP	32	96	2
BRK	32	192	2
BRK	32	192	3
TAP	33	0	0
TAP	33	96	0
TAP	33	192	0
TAP	33	192	7
TAP	34	0	1
TAP	34	192	2
TAP	35	0	3
TAP	35	192	4
TAP	36	0	4
TAP	36	0	5
TAP	36	96	4
TAP	36	96	5
TAP	36	192	3
TAP	36	192	6
TAP	37	0	7
TAP	37	96	7
TAP	37	192	0
TAP	37	192	7
TAP	38	0	6
TAP	38	192	5
TAP	39	0	4
TAP	39	192	3
TAP	40	0	2
TAP	40	0	3
TAP	40	96	2
TAP	40	96	3
TAP	40	192	1
TAP	40	192	4
STR	41	0	2
SCR	41	0	2	96	192	5
STR	42	0	6
SUL	42	0	6	96	192	1
STR	43	0	0
SCR	43	0	0	96	384	7
STR	45	0	5
SCL	45	0	5	96	192	2
STR	46	0	1
SUR	46	0	1	96	192	6
STR	47	0	7
SCL	47	0	7	96	384	0
HLD	49	0	0	576
HLD	49	0	7	576
STR	51	0	0
SSL	51	0	0	96	288	4
TAP	52	192	0
TAP	52	192	7
STR	53	0	7
SSR	53	0	7	96	288	3
BRK	54	192	0
BRK	54	192	7
TAP	55	0	1
TAP	55	96	1
TAP	55	192	2
TAP	55	288	2
TAP	56	0	3
TAP	56	0	4
TAP	56	96	3
TAP	56	96	4
TAP	56	192	2
TAP	56	192	5
TAP	57	0	6
TAP	57	96	6
TAP	57	192	5
TAP	57	288	5
STR	58	0	3
SCL	58	0	3	96	96	0
STR	58	0	4
SCR	58	0	4	96	96	7
TAP	59	0	1
TAP	59	96	1
TAP	59	192	2
TAP	59	288	2
TAP	60	0	3
TAP	60	0	4
TAP	60	96	3
TAP	60	96	4
TAP	60	192	2
TAP	60	192	5
TAP	61	0	6
TAP	61	96	6
TAP	61	192	5
TAP	61	288	5
TAP	62	0	3
TAP	62	0	4
TAP	62	96	3
TAP	62	96	4
TAP	62	192	2
TAP	62	192	5
TAP	63	0	2
TAP	63	96	2
TAP	63	192	1
TAP	63	288	1
TAP	64	0	0
TAP	64	0	7
TAP	64	96	0
TAP	64	96	7
TAP	64	192	1
TAP	64	192	6
TAP	65	0	5
TAP	65	96	5
TAP	65	192	6
TAP	65	288	6
STR	66	0	0
SCR	66	0	0	96	96	3
STR	66	0	7
SCL	66	0	7	96	96	4
TAP	67	0	2
TAP	67	96	2
TAP	67	192	1
TAP	67	288	1
TAP	68	0	0
TAP	68	0	7
TAP	68	96	0
TAP	68	96	7
TAP	68	192	1
TAP	68	192	6
TAP	69	0	5
TAP	69	96	5
TAP	69	192	6
TAP	69	288	6
TAP	70	0	0
TAP	70	0	7
TAP	70	96	0
TAP	70	96	7
BRK	70	192	1
BRK	70	192	6
HLD	72	0	2	192
TAP	72	192	3
HLD	73	0	5	192
TAP	73	192	4
HLD	74	0	3	192
TAP	74	192	2
HLD	75	0	4	192
TAP	75	192	5
HLD	76	0	1	192
TAP	76	192	3
HLD	77	0	6	192
TAP	77	192	4
HLD	78	0	1	192
TAP	78	192	0
HLD	79	0	6	192
TAP	79	192	7
TAP	80	0	0
TAP	80	96	0
TAP	80	192	1
TAP	80	288	1
TAP	81	0	2
TAP	81	96	2
TAP	81	192	3
TAP	81	288	3
TAP	82	0	4
TAP	82	96	4
TAP	82	192	5
TAP	82	288	5
TAP	83	0	6
TAP	83	96	6
TAP	83	192	7
TAP	83	288	7
TAP	84	0	0
TAP	84	0	1
TAP	84	96	0
TAP	84	96	1
TAP	84	192	2
TAP	84	192	3
TAP	84	288	2
TAP	84	288	3
TAP	85	0	4
TAP	85	0	5
TAP	85	96	4
TAP	85	96	5
TAP	85	192	6
TAP	85	192	7
TAP	85	288	6
TAP	85	288	7
HLD	86	0	0	576
HLD	87	0	7	192
HLD	88	0	0	336
TAP	88	144	7
TAP	88	240	7
STR	88	336	7
SCL	88	336	7	96	144	4
HLD	90	0	7	336
TAP	90	144	0
TAP	90	240	0
STR	90	336	0
SCR	90	336	0	96	144	3
HLD	92	0	0	336
TAP	92	144	6
TAP	92	240	6
STR	92	336	6
SI_	92	336	6	96	144	2
HLD	94	0	7	336
TAP	94	144	1
TAP	94	240	1
STR	94	336	1
SI_	94	336	1	96	144	5
BRK	96	0	0
BRK	96	0	7
TAP	98	0	0
TAP	98	96	0
TAP	98	192	1
TAP	98	288	1
TAP	99	0	2
TAP	99	0	3
TAP	99	96	3
TAP	99	96	4
TAP	99	192	4
TAP	99	192	5
TAP	100	0	7
TAP	100	96	7
TAP	100	192	6
TAP	100	288	6
STR	101	0	1
SCR	101	0	1	96	96	3
STR	101	0	5
SCR	101	0	5	96	96	7
TAP	102	0	0
TAP	102	96	0
TAP	102	192	1
TAP	102	288	1
TAP	103	0	2
TAP	103	0	3
TAP	103	96	3
TAP	103	96	4
TAP	103	192	4
TAP	103	192	5
TAP	104	0	7
TAP	104	96	7
TAP	104	192	6
TAP	104	288	6
TAP	105	0	4
TAP	105	0	5
TAP	105	96	3
TAP	105	96	4
BRK	105	192	2
BRK	105	192	3
TAP	106	0	3
TAP	106	96	3
TAP	106	192	2
TAP	106	288	2
TAP	107	0	0
TAP	107	0	1
TAP	107	96	0
TAP	107	96	7
TAP	107	192	6
TAP	107	192	7
TAP	108	0	4
TAP	108	96	4
TAP	108	192	5
TAP	108	288	5
STR	109	0	2
SCL	109	0	2	96	96	0
STR	109	0	6
SCL	109	0	6	96	96	4
TAP	110	0	3
TAP	110	96	3
TAP	110	192	2
TAP	110	288	2
TAP	111	0	0
TAP	111	0	1
TAP	111	96	0
TAP	111	96	7
TAP	111	192	6
TAP	111	192	7
TAP	112	0	4
TAP	112	96	4
TAP	112	192	5
TAP	112	288	5
TAP	113	0	6
TAP	113	0	7
TAP	113	96	0
TAP	113	96	7
BRK	113	192	0
BRK	113	192	1
TAP	114	192	0
TAP	114	288	0
TAP	115	0	1
TAP	115	96	1
TAP	115	192	2
TAP	115	288	2
TAP	116	0	3
TAP	116	96	3
TAP	116	192	4
TAP	116	288	4
TAP	117	0	5
TAP	117	96	5
TAP	117	192	6
TAP	117	192	7
TAP	117	288	6
TAP	117	288	7
TAP	118	0	6
TAP	118	0	7
TAP	118	192	7
TAP	118	288	7
TAP	119	0	6
TAP	119	96	6
TAP	119	192	5
TAP	119	288	5
TAP	120	0	4
TAP	120	96	4
TAP	120	192	3
TAP	120	288	3
TAP	121	0	2
TAP	121	96	2
TAP	121	192	0
TAP	121	192	1
TAP	121	288	0
TAP	121	288	1
TAP	122	0	0
TAP	122	0	1
TAP	122	192	0
TAP	122	288	1
TAP	123	0	2
TAP	123	96	3
TAP	123	192	4
TAP	123	288	5
TAP	124	0	6
TAP	124	96	7
TAP	124	192	0
TAP	124	288	1
TAP	125	0	2
TAP	125	96	3
TAP	125	192	4
TAP	125	192	5
TAP	125	288	2
TAP	125	288	3
TAP	126	0	4
TAP	126	0	5
TAP	126	192	7
TAP	126	288	6
TAP	127	0	5
TAP	127	96	4
TAP	127	192	3
TAP	127	288	2
TAP	128	0	1
TAP	128	96	0
TAP	128	192	7
TAP	128	288	6
TAP	129	0	5
TAP	129	96	4
TAP	129	192	2
TAP	129	192	3
TAP	129	288	4
TAP	129	288	5
BRK	130	0	2
BRK	130	0	3

T_REC_TAP	324
T_REC_BRK	14
T_REC_XTP	0
T_REC_HLD	18
T_REC_XHO	0
T_REC_STR	24
T_REC_BST	0
T_REC_XST	0
T_REC_TTP	0
T_REC_THO	0
T_REC_SLD	24
T_REC_ALL	404
T_NUM_TAP	348
T_NUM_BRK	14
T_NUM_HLD	18
T_NUM_SLD	24
T_NUM_ALL	404
T_JUDGE_TAP	362
T_JUDGE_HLD	124
T_JUDGE_SLD	24
T_JUDGE_ALL	510
TTM_EACHPAIRS	76
TTM_SCR_TAP	174000
TTM_SCR_BRK	36400
TTM_SCR_HLD	18000
TTM_SCR_SLD	36000
TTM_SCR_ALL	264400
TTM_SCR_S	255150
TTM_SCR_SS	263000
TTM_RAT_ACV	10053

