VERSION	0.00.00	1.03.00
FES_MODE	0
BPM_DEF	230.000	230.000	230.000	230.000
MET_DEF	4	4
RESOLUTION	384
CLK_DEF	384
COMPATIBLE_CODE	MA2

BPM	0	0	230.000
MET	0	0	4	4

TAP	7	0	0
TAP	8	0	0
TAP	9	0	0
TAP	9	0	7
TAP	11	0	7
TAP	12	0	7
TAP	13	0	0
TAP	13	0	7
TAP	15	0	0
TAP	16	0	0
TAP	17	0	7
TAP	18	0	7
TAP	19	0	0
TAP	20	0	7
TAP	21	0	0
TAP	22	0	7
TAP	23	0	0
TAP	23	0	7
TAP	25	0	0
TAP	26	0	0
TAP	27	0	1
TAP	27	192	1
TAP	28	0	1
TAP	29	0	2
TAP	30	0	2
TAP	31	0	3
TAP	31	192	3
TAP	32	0	3
TAP	33	0	4
TAP	34	0	4
TAP	35	0	5
TAP	35	192	5
TAP	36	0	5
TAP	37	0	6
TAP	38	0	6
TAP	39	0	7
TAP	39	192	7
TAP	40	0	7
HLD	41	0	0	384
HLD	43	0	0	384
HLD	45	0	7	384
HLD	47	0	7	384
BRK	49	0	0
TAP	55	0	0
TAP	55	192	0
TAP	56	0	0
TAP	57	0	0
TAP	57	0	1
TAP	57	192	0
TAP	57	192	1
TAP	58	0	0
TAP	58	0	1
TAP	59	0	2
TAP	59	192	2
TAP	60	0	2
TAP	61	0	2
TAP	61	0	3
TAP	61	192	2
TAP	61	192	3
TAP	62	0	2
TAP	62	0	3
TAP	63	0	4
TAP	63	192	4
TAP	64	0	4
TAP	65	0	4
TAP	65	0	5
TAP	65	192	4
TAP	65	192	5
TAP	66	0	4
TAP	66	0	5
TAP	67	0	6
TAP	67	192	6
TAP	68	0	6
TAP	69	0	6
TAP	69	0	7
TAP	69	192	6
TAP	69	192	7
TAP	70	0	6
TAP	70	0	7
STR	72	0	0
SI_	72	0	0	96	672	3
STR	76	0	4
SI_	76	0	4	96	672	7
TAP	79	360	7
TAP	80	169	7
TAP	80	361	7
TAP	81	361	6
TAP	82	169	6
TAP	82	361	6
TAP	83	361	5
TAP	84	170	5
TAP	84	362	5
TAP	85	362	4
TAP	86	170	4
TAP	86	362	4
TAP	87	361	3
TAP	88	170	3
TAP	88	362	3
TAP	89	362	2
TAP	90	170	2
TAP	90	362	2
TAP	91	362	1
TAP	92	171	1
TAP	92	363	1
TAP	93	363	0
TAP	94	171	0
BRK	94	361	0
TAP	96	0	0
TAP	96	0	7
TAP	96	192	0
TAP	96	192	7
TAP	97	0	0
TAP	97	0	7
TAP	98	0	0
TAP	98	192	0
TAP	99	0	1
TAP	99	192	1
TAP	100	0	2
TAP	100	192	2
TAP	101	0	3
TAP	101	192	3
TAP	102	0	4
TAP	102	192	4
TAP	103	0	5
TAP	103	192	5
TAP	104	0	6
TAP	104	192	6
BRK	105	0	0
BRK	105	0	7
TAP	106	0	7
TAP	106	192	7
TAP	107	0	6
TAP	107	192	6
TAP	108	0	5
TAP	108	192	5
TAP	109	0	4
TAP	109	192	4
TAP	110	0	3
TAP	110	192	3
TAP	111	0	2
TAP	111	192	2
TAP	112	0	1
TAP	112	192	1
BRK	113	0	0
BRK	113	0	7
TAP	114	192	0
TAP	114	192	1
TAP	115	0	0
TAP	115	0	1
TAP	115	192	0
TAP	115	192	1
TAP	116	192	2
TAP	116	192	3
TAP	117	0	2
TAP	117	0	3
TAP	117	192	2
TAP	117	192	3
TAP	118	192	4
TAP	118	192	5
TAP	119	0	4
TAP	119	0	5
TAP	119	192	4
TAP	119	192	5
TAP	120	192	6
TAP	120	192	7
TAP	121	0	6
TAP	121	0	7
TAP	121	192	6
TAP	121	192	7
TAP	122	192	0
TAP	122	192	7
TAP	123	0	0
TAP	123	0	7
TAP	123	192	0
TAP	123	192	7
TAP	124	192	1
TAP	124	192	6
TAP	125	0	1
TAP	125	0	6
TAP	125	192	1
TAP	125	192	6
TAP	126	192	2
TAP	126	192	5
TAP	127	0	2
TAP	127	0	5
TAP	127	192	2
TAP	127	192	5
TAP	128	192	3
TAP	128	192	4
TAP	129	0	3
TAP	129	0	4
TAP	129	192	3
TAP	129	192	4
BRK	130	0	3
BRK	130	0	4

T_REC_TAP	179
T_REC_BRK	8
T_REC_XTP	0
T_REC_HLD	4
T_REC_XHO	0
T_REC_STR	2
T_REC_BST	0
T_REC_XST	0
T_REC_TTP	0
T_REC_THO	0
T_REC_SLD	2
T_REC_ALL	195
T_NUM_TAP	181
T_NUM_BRK	8
T_NUM_HLD	4
T_NUM_SLD	2
T_NUM_ALL	195
T_JUDGE_TAP	189
T_JUDGE_HLD	32
T_JUDGE_SLD	2
T_JUDGE_ALL	223
TTM_EACHPAIRS	45
TTM_SCR_TAP	90500
TTM_SCR_BRK	20800
TTM_SCR_HLD	4000
TTM_SCR_SLD	3000
TTM_SCR_ALL	118300
TTM_SCR_S	114000
TTM_SCR_SS	117500
TTM_RAT_ACV	10068

