VERSION	0.00.00	1.03.00
FES_MODE	0
BPM_DEF	200.000	200.000	200.000	200.000
MET_DEF	4	4
RESOLUTION	384
CLK_DEF	384
COMPATIBLE_CODE	MA2

BPM	0	0	200.000
MET	0	0	4	4

TAP	1	0	1
HLD	1	48	1	96
HLD	1	144	2	96
HLD	1	240	3	96
HLD	1	336	4	96
STR	2	48	5
SUL	2	48	5	96	144	4
TAP	3	0	5
HLD	3	48	5	96
HLD	3	144	3	96
HLD	3	240	1	96
STR	3	336	0
SI_	3	336	0	96	96	6
STR	4	48	7
SI_	4	48	7	96	96	3
TAP	5	0	3
HLD	5	48	3	96
HLD	5	144	2	96
HLD	5	240	1	96
HLD	5	336	0	96
STR	6	48	7
SUL	6	48	7	96	144	2
TAP	7	0	0
STR	7	48	0
SCR	7	48	0	96	144	7
BRK	8	0	0
BRK	8	96	1
BRK	8	192	2
BRK	8	288	3
TAP	9	0	5
TAP	9	96	4
TAP	9	96	5
TAP	9	192	0
TAP	9	240	1
TAP	9	336	2
TAP	9	336	7
TAP	10	48	4
TAP	10	48	5
TAP	10	144	2
TAP	10	168	3
TAP	10	192	2
TAP	10	288	5
TAP	10	336	5
TAP	11	0	2
TAP	11	96	2
TAP	11	96	3
TAP	11	192	7
TAP	11	240	6
TAP	11	336	0
TAP	11	336	5
TAP	12	48	2
TAP	12	48	3
TAP	12	144	5
TAP	12	168	4
TAP	12	192	5
TAP	12	288	3
TAP	12	336	2
TAP	13	0	1
TAP	13	96	0
TAP	13	96	1
TAP	13	192	4
TAP	13	240	5
TAP	13	336	3
TAP	13	336	6
TAP	14	48	0
TAP	14	48	1
TAP	14	144	6
TAP	14	168	7
TAP	14	192	6
TAP	14	288	2
TAP	14	336	1
TAP	15	0	6
TAP	15	96	6
TAP	15	96	7
TAP	15	192	3
TAP	15	240	2
TAP	15	336	1
TAP	15	336	4
TAP	16	48	6
TAP	16	48	7
TAP	16	144	1
TAP	16	168	0
TAP	16	192	1
TAP	16	288	6
TAP	16	336	6
HLD	17	0	2	96
TAP	17	96	3
TAP	17	192	7
TAP	17	240	6
TAP	17	336	0
TAP	17	336	5
TAP	18	48	2
TAP	18	48	3
TAP	18	144	5
TAP	18	168	4
TAP	18	192	5
TAP	18	288	3
TAP	18	336	2
HLD	19	0	5	96
TAP	19	96	4
TAP	19	192	0
TAP	19	240	1
TAP	19	336	2
TAP	19	336	7
TAP	20	48	4
TAP	20	48	5
TAP	20	144	2
TAP	20	168	3
TAP	20	192	2
TAP	20	288	5
TAP	20	336	5
HLD	21	0	1	96
TAP	21	96	0
TAP	21	192	4
TAP	21	240	5
TAP	21	336	3
TAP	21	336	6
TAP	22	48	0
TAP	22	48	1
TAP	22	144	6
TAP	22	168	7
TAP	22	192	6
TAP	22	288	2
TAP	22	336	1
HLD	23	0	6	96
TAP	23	96	7
TAP	23	192	3
TAP	23	240	2
TAP	23	336	1
TAP	23	336	4
TAP	24	48	6
TAP	24	48	7
TAP	24	144	1
TAP	24	168	0
TAP	24	192	1
BRK	24	288	3
BRK	24	288	4
STR	25	0	1
SI_	25	0	1	96	48	4
TAP	25	48	7
TAP	25	96	7
STR	25	192	6
SI_	25	192	6	96	48	3
TAP	25	240	0
TAP	25	288	0
STR	26	0	1
SI_	26	0	1	96	48	4
TAP	26	48	7
TAP	26	96	7
STR	26	192	6
SI_	26	192	6	96	48	3
TAP	26	240	0
TAP	26	288	0
STR	27	0	1
SI_	27	0	1	96	48	5
TAP	27	48	7
TAP	27	96	7
STR	27	192	6
SI_	27	192	6	96	48	2
TAP	27	240	0
TAP	27	288	0
TAP	28	0	1
TAP	28	96	4
TAP	28	96	5
TAP	28	192	2
TAP	28	192	6
TAP	28	288	2
TAP	28	288	3
STR	29	0	6
SCL	29	0	6	96	48	3
TAP	29	48	7
TAP	29	96	7
STR	29	192	1
SCR	29	192	1	96	48	4
TAP	29	240	0
TAP	29	288	0
STR	30	0	6
SCL	30	0	6	96	48	3
TAP	30	48	7
TAP	30	96	7
STR	30	192	1
SCR	30	192	1	96	48	4
TAP	30	240	0
TAP	30	288	0
STR	31	0	6
SUL	31	0	6	96	48	2
TAP	31	48	7
TAP	31	96	7
STR	31	192	1
SUR	31	192	1	96	48	5
TAP	31	240	0
TAP	31	288	0
TAP	32	0	6
TAP	32	96	2
TAP	32	96	3
TAP	32	192	1
TAP	32	192	5
TAP	32	288	4
TAP	32	288	5
STR	33	0	5
SI_	33	0	5	96	48	0
TAP	33	48	4
TAP	33	96	4
STR	33	192	2
SI_	33	192	2	96	48	7
TAP	33	240	3
TAP	33	288	3
STR	34	0	5
SI_	34	0	5	96	48	0
TAP	34	48	4
TAP	34	96	4
STR	34	192	2
SI_	34	192	2	96	48	7
TAP	34	240	3
TAP	34	288	3
STR	35	0	5
SI_	35	0	5	96	48	1
TAP	35	48	4
TAP	35	96	4
STR	35	192	2
SI_	35	192	2	96	48	6
TAP	35	240	3
TAP	35	288	3
TAP	36	0	4
TAP	36	96	4
TAP	36	96	5
TAP	36	192	2
TAP	36	192	6
TAP	36	288	2
TAP	36	288	3
STR	37	0	2
SCL	37	0	2	96	48	7
TAP	37	48	3
TAP	37	96	3
STR	37	192	5
SCR	37	192	5	96	48	0
TAP	37	240	4
TAP	37	288	4
STR	38	0	2
SCL	38	0	2	96	48	7
TAP	38	48	3
TAP	38	96	3
STR	38	192	5
SCR	38	192	5	96	48	0
TAP	38	240	4
TAP	38	288	4
TAP	39	0	3
TAP	39	96	2
TAP	39	96	3
TAP	39	192	1
TAP	39	192	4
TAP	39	288	4
TAP	39	288	5
TAP	40	0	3
TAP	40	0	4
TAP	40	96	0
TAP	40	96	7
BRK	40	192	1
BRK	40	192	6
HLD	41	0	6	96
TAP	41	96	7
TAP	41	144	7
TAP	41	192	4
TAP	41	192	5
TAP	41	288	2
TAP	41	288	4
HLD	42	0	1	96
TAP	42	96	0
TAP	42	144	0
TAP	42	192	2
TAP	42	192	3
TAP	42	288	3
TAP	42	288	5
HLD	43	0	6	96
TAP	43	96	7
TAP	43	144	7
TAP	43	192	4
TAP	43	192	5
TAP	43	288	2
TAP	43	288	4
HLD	44	0	1	96
TAP	44	96	0
TAP	44	144	0
TAP	44	192	2
TAP	44	192	3
TAP	44	288	3
TAP	44	288	5
HLD	45	0	6	96
TAP	45	96	5
TAP	45	144	5
TAP	45	192	3
TAP	45	192	4
TAP	45	288	2
TAP	45	288	5
HLD	46	0	1	96
TAP	46	96	2
TAP	46	144	2
TAP	46	192	3
TAP	46	192	4
TAP	46	288	2
TAP	46	288	5
HLD	47	0	6	96
TAP	47	96	5
TAP	47	144	5
TAP	47	192	3
TAP	47	192	4
TAP	47	288	2
TAP	47	288	5
STR	48	0	7
SI_	48	0	7	96	48	3
STR	48	96	0
SI_	48	96	0	96	48	4
BRK	48	192	7
HLD	49	0	1	96
TAP	49	96	0
TAP	49	144	0
TAP	49	192	4
TAP	49	192	5
TAP	49	288	1
TAP	49	288	7
HLD	50	0	6	96
TAP	50	96	7
TAP	50	144	7
TAP	50	192	2
TAP	50	192	3
TAP	50	288	0
TAP	50	288	6
HLD	51	0	1	96
TAP	51	96	0
TAP	51	144	0
TAP	51	192	4
TAP	51	192	5
STR	51	288	0
SUL	51	288	0	96	192	3
STR	51	288	7
SUR	51	288	7	96	192	4
TAP	52	288	0
TAP	52	288	6
HLD	53	0	1	96
TAP	53	96	0
TAP	53	144	0
TAP	53	192	3
TAP	53	192	4
TAP	53	288	0
TAP	53	288	5
HLD	54	0	6	96
TAP	54	96	7
TAP	54	144	7
TAP	54	192	3
TAP	54	192	4
TAP	54	288	2
TAP	54	288	7
TAP	55	0	1
TAP	55	0	6
STR	55	96	3
SI_	55	96	3	96	48	0
STR	55	96	4
SI_	55	96	4	96	48	7
TAP	55	288	2
TAP	55	288	5
STR	56	0	0
SI_	56	0	0	96	48	3
STR	56	0	7
SI_	56	0	7	96	48	4
BRK	56	192	0
BRK	56	192	6
BRK	56	288	1
BRK	56	288	7
STR	57	0	6
SI_	57	0	6	96	48	1
TAP	57	48	6
STR	57	144	2
SI_	57	144	2	96	48	5
TAP	57	192	2
STR	57	288	6
SI_	57	288	6	96	48	1
TAP	57	336	6
STR	58	48	2
SI_	58	48	2	96	48	5
TAP	58	96	2
STR	58	192	6
SV_	58	192	6	96	48	1
TAP	58	240	6
STR	58	336	2
SCR	58	336	2	96	48	5
TAP	59	0	2
STR	59	96	6
SCR	59	96	6	96	48	1
TAP	59	144	6
STR	59	240	2
SV_	59	240	2	96	48	5
TAP	59	288	2
STR	60	0	6
SCL	60	0	6	96	48	3
TAP	60	96	0
TAP	60	144	0
TAP	60	192	1
TAP	60	288	2
TAP	60	288	3
STR	61	0	5
SI_	61	0	5	96	48	2
TAP	61	48	5
STR	61	144	1
SI_	61	144	1	96	48	6
TAP	61	192	1
STR	61	288	5
SI_	61	288	5	96	48	2
TAP	61	336	5
STR	62	48	1
SI_	62	48	1	96	48	6
TAP	62	96	1
STR	62	192	5
SV_	62	192	5	96	48	2
TAP	62	240	5
STR	62	336	1
SCL	62	336	1	96	48	6
TAP	63	0	1
STR	63	96	5
SCL	63	96	5	96	48	2
TAP	63	144	5
STR	63	240	1
SV_	63	240	1	96	48	6
TAP	63	288	1
STR	64	0	3
SI_	64	0	3	96	48	7
TAP	64	192	0
BRK	64	288	1
BRK	64	288	2
STR	65	0	0
SI_	65	0	0	96	48	3
STR	65	96	4
SI_	65	96	4	96	48	7
STR	65	192	1
SI_	65	192	1	96	48	4
STR	65	288	5
SI_	65	288	5	96	48	0
STR	66	0	2
SI_	66	0	2	96	48	5
STR	66	96	6
SI_	66	96	6	96	48	1
STR	66	192	3
SI_	66	192	3	96	48	6
STR	66	288	7
SI_	66	288	7	96	48	4
STR	67	0	3
SI_	67	0	3	96	48	0
STR	67	96	6
SI_	67	96	6	96	48	3
STR	67	192	2
SI_	67	192	2	96	48	7
STR	67	288	5
SI_	67	288	5	96	48	2
STR	68	0	1
SI_	68	0	1	96	48	6
STR	68	96	4
SI_	68	96	4	96	48	1
STR	68	192	0
SI_	68	192	0	96	48	5
STR	68	288	7
SI_	68	288	7	96	48	2
STR	69	0	1
SI_	69	0	1	96	48	4
STR	69	96	6
SI_	69	96	6	96	48	3
STR	69	192	2
SI_	69	192	2	96	48	7
STR	69	288	5
SI_	69	288	5	96	48	0
STR	70	0	3
SI_	70	0	3	96	48	7
STR	70	96	4
SI_	70	96	4	96	48	0
STR	70	192	1
SCL	70	192	1	96	48	6
TAP	71	0	4
TAP	71	0	5
TAP	71	96	1
TAP	71	144	4
TAP	71	192	2
TAP	71	192	3
TAP	71	288	1
TAP	71	288	7
TAP	72	0	3
TAP	72	0	4
STR	72	96	0
SI_	72	96	0	96	48	4
STR	72	96	7
SI_	72	96	7	96	48	3
TAP	72	288	2
TAP	72	288	5
STR	73	0	5
SI_	73	0	5	96	48	0
TAP	73	48	5
STR	73	144	1
SI_	73	144	1	96	48	4
TAP	73	192	1
STR	73	288	5
SI_	73	288	5	96	48	0
TAP	73	336	5
STR	74	48	1
SI_	74	48	1	96	48	4
TAP	74	96	1
STR	74	192	5
SV_	74	192	5	96	48	0
TAP	74	240	5
STR	74	336	1
SCR	74	336	1	96	48	4
TAP	75	0	1
STR	75	96	5
SCR	75	96	5	96	48	0
TAP	75	144	5
STR	75	240	1
SV_	75	240	1	96	48	4
TAP	75	288	1
STR	76	0	6
SCL	76	0	6	96	48	3
TAP	76	96	0
TAP	76	144	0
TAP	76	192	1
TAP	76	288	2
TAP	76	288	3
STR	77	0	6
SI_	77	0	6	96	48	3
TAP	77	48	6
STR	77	144	2
SI_	77	144	2	96	48	7
TAP	77	192	2
STR	77	288	6
SI_	77	288	6	96	48	3
TAP	77	336	6
STR	78	48	2
SI_	78	48	2	96	48	7
TAP	78	96	2
STR	78	192	6
SV_	78	192	6	96	48	3
TAP	78	240	6
STR	78	336	2
SCL	78	336	2	96	48	7
TAP	79	0	2
STR	79	96	6
SCL	79	96	6	96	48	3
TAP	79	144	6
STR	79	240	2
SV_	79	240	2	96	48	7
TAP	79	288	2
STR	80	0	5
SI_	80	0	5	96	144	2
BRK	80	288	1
BRK	80	288	6
STR	81	0	2
SI_	81	0	2	96	48	7
STR	81	96	3
SI_	81	96	3	96	48	6
STR	81	192	1
SCR	81	192	1	96	48	4
STR	81	288	0
SCL	81	288	0	96	48	5
STR	82	0	2
SI_	82	0	2	96	48	7
STR	82	96	5
SI_	82	96	5	96	48	0
STR	82	192	4
SI_	82	192	4	96	48	1
STR	82	288	6
SCL	82	288	6	96	48	3
STR	83	0	7
SCR	83	0	7	96	48	2
STR	83	96	5
SI_	83	96	5	96	48	0
STR	83	192	1
SCR	83	192	1	96	48	4
STR	83	288	0
SCL	83	288	0	96	48	5
STR	84	0	3
SI_	84	0	3	96	48	0
STR	84	96	4
SI_	84	96	4	96	48	7
STR	84	192	2
SCR	84	192	2	96	48	5
STR	84	288	1
SCL	84	288	1	96	48	6
STR	85	0	5
SI_	85	0	5	96	48	2
STR	85	96	6
SI_	85	96	6	96	48	1
STR	85	192	2
SI_	85	192	2	96	48	7
STR	85	288	5
SCL	85	288	5	96	48	2
STR	86	0	0
SI_	86	0	0	96	48	6
STR	86	96	4
SI_	86	96	4	96	48	0
STR	86	192	2
SV_	86	192	2	96	48	3
STR	87	0	0
SI_	87	0	0	96	48	6
STR	87	0	1
SI_	87	0	1	96	48	5
STR	87	192	0
SCL	87	192	0	96	48	6
STR	87	192	7
SUL	87	192	7	96	48	2
HLD	88	0	0	192
TAP	88	96	4
BRK	88	192	7
TAP	89	0	5
STR	89	48	5
SCR	89	48	5	96	96	0
STR	89	144	0
SCR	89	144	0	96	96	3
STR	89	240	3
SCR	89	240	3	96	96	6
STR	89	336	6
SCR	89	336	6	96	96	1
STR	90	48	1
SUR	90	48	1	96	192	3
TAP	90	144	3
TAP	91	0	2
STR	91	48	2
SCL	91	48	2	96	96	7
STR	91	144	7
SCL	91	144	7	96	96	4
STR	91	240	4
SCL	91	240	4	96	96	1
STR	91	336	1
SCL	91	336	1	96	96	6
STR	92	48	6
SUL	92	48	6	96	192	4
TAP	92	144	4
TAP	93	0	6
STR	93	48	6
SCL	93	48	6	96	96	3
STR	93	144	3
SCL	93	144	3	96	96	0
STR	93	240	0
SCL	93	240	0	96	96	5
STR	93	336	5
SCL	93	336	5	96	96	2
STR	94	48	2
SUL	94	48	2	96	192	0
TAP	94	144	0
TAP	95	0	1
STR	95	48	1
SCR	95	48	1	96	96	4
STR	95	144	4
SCR	95	144	4	96	96	7
STR	95	240	7
SCR	95	240	7	96	96	2
STR	95	336	2
SCR	95	336	2	96	96	5
STR	96	48	5
SCR	96	48	5	96	96	0
TAP	96	144	0
BRK	96	288	2
BRK	96	288	5
TAP	97	0	2
STR	97	48	2
SCL	97	48	2	96	96	7
STR	97	144	7
SCL	97	144	7	96	96	4
STR	97	240	4
SCL	97	240	4	96	96	1
STR	97	336	1
SCL	97	336	1	96	96	6
STR	98	48	6
SUL	98	48	6	96	192	4
TAP	98	144	4
TAP	99	0	5
STR	99	48	5
SCR	99	48	5	96	96	0
STR	99	144	0
SCR	99	144	0	96	96	3
STR	99	240	3
SCR	99	240	3	96	96	6
STR	99	336	6
SCR	99	336	6	96	96	1
STR	100	48	1
SUR	100	48	1	96	192	3
TAP	100	144	3
TAP	101	0	1
STR	101	48	1
SCR	101	48	1	96	96	4
STR	101	144	4
SCR	101	144	4	96	96	7
STR	101	240	7
SCR	101	240	7	96	96	2
STR	101	336	2
SCR	101	336	2	96	96	5
STR	102	48	5
SUR	102	48	5	96	144	7
TAP	102	144	7
TAP	103	0	2
TAP	103	0	7
TAP	103	96	2
TAP	103	144	3
TAP	103	192	0
TAP	103	192	5
TAP	103	288	5
TAP	103	336	4
TAP	104	48	1
TAP	104	48	6
TAP	104	144	0
TAP	104	144	7
TAP	104	192	1
TAP	104	192	6
TAP	104	240	1
TAP	104	240	6
BRK	104	288	1
BRK	104	288	6

T_REC_TAP	344
T_REC_BRK	22
T_REC_XTP	0
T_REC_HLD	28
T_REC_XHO	0
T_REC_STR	158
T_REC_BST	0
T_REC_XST	0
T_REC_TTP	0
T_REC_THO	0
T_REC_SLD	158
T_REC_ALL	710
T_NUM_TAP	502
T_NUM_BRK	22
T_NUM_HLD	28
T_NUM_SLD	158
T_NUM_ALL	710
T_JUDGE_TAP	524
T_JUDGE_HLD	58
T_JUDGE_SLD	158
T_JUDGE_ALL	740
TTM_EACHPAIRS	87
TTM_SCR_TAP	251000
TTM_SCR_BRK	57200
TTM_SCR_HLD	28000
TTM_SCR_SLD	237000
TTM_SCR_ALL	573200
TTM_SCR_S	553900
TTM_SCR_SS	571000
TTM_RAT_ACV	10038

