VERSION	0.00.00	1.03.00
FES_MODE	0
BPM_DEF	200.000	200.000	200.000	200.000
MET_DEF	4	4
RESOLUTION	384
CLK_DEF	384
COMPATIBLE_CODE	MA2

BPM	0	0	200.000
MET	0	0	4	4

TAP	1	0	2
TAP	1	0	3
TAP	1	192	2
TAP	1	192	3
TAP	2	0	4
TAP	2	0	5
TAP	2	192	4
TAP	2	192	5
TAP	3	0	2
TAP	3	0	3
TAP	3	192	2
TAP	3	192	3
STR	4	0	5
SCL	4	0	5	96	96	2
TAP	5	0	0
TAP	5	0	1
TAP	5	192	0
TAP	5	192	1
TAP	6	0	6
TAP	6	0	7
TAP	6	192	6
TAP	6	192	7
TAP	7	0	0
TAP	7	0	1
TAP	7	192	0
TAP	7	192	1
TAP	8	0	7
TAP	8	96	7
TAP	8	192	7
BRK	8	288	5
HLD	9	0	1	288
TAP	9	96	4
TAP	9	288	4
HLD	10	0	6	288
TAP	10	96	3
TAP	10	288	3
HLD	11	0	0	288
TAP	11	96	4
TAP	11	288	4
TAP	12	0	0
TAP	12	96	2
TAP	12	192	4
TAP	12	288	6
HLD	13	0	7	288
TAP	13	96	2
TAP	13	288	2
HLD	14	0	0	288
TAP	14	96	5
TAP	14	288	5
HLD	15	0	6	288
TAP	15	96	2
TAP	15	288	2
TAP	16	0	6
TAP	16	96	7
TAP	16	192	0
TAP	16	288	0
TAP	16	288	1
HLD	17	0	2	288
TAP	17	96	0
TAP	17	288	6
HLD	18	0	5	288
TAP	18	96	7
TAP	18	288	1
HLD	19	0	3	288
TAP	19	96	0
TAP	19	288	6
TAP	20	0	3
TAP	20	96	1
TAP	20	192	7
TAP	20	288	5
HLD	21	0	4	288
TAP	21	96	7
TAP	21	288	1
HLD	22	0	3	288
TAP	22	96	0
TAP	22	288	6
HLD	23	0	5	288
TAP	23	96	7
TAP	23	288	1
TAP	24	0	5
TAP	24	96	4
TAP	24	192	3
BRK	24	288	2
BRK	24	288	3
TAP	25	0	1
TAP	25	96	0
TAP	25	192	2
TAP	25	192	7
TAP	25	288	3
TAP	26	0	6
TAP	26	96	7
TAP	26	192	0
TAP	26	192	5
TAP	26	288	4
TAP	27	0	1
TAP	27	96	0
TAP	27	192	2
TAP	27	192	7
TAP	27	288	3
TAP	28	0	6
TAP	28	0	7
TAP	28	96	0
TAP	28	96	5
TAP	28	192	1
TAP	28	192	4
TAP	28	288	2
TAP	28	288	3
TAP	29	0	2
TAP	29	96	3
TAP	29	192	1
TAP	29	192	4
TAP	29	288	0
TAP	30	0	5
TAP	30	96	4
TAP	30	192	3
TAP	30	192	6
TAP	30	288	7
TAP	31	0	0
TAP	31	96	1
TAP	31	192	2
TAP	31	288	3
STR	32	0	4
SUR	32	0	4	96	192	5
TAP	33	0	6
TAP	33	96	7
TAP	33	192	0
HLD	33	192	5	96
TAP	33	288	2
TAP	34	0	1
TAP	34	96	0
HLD	34	192	2	96
TAP	34	192	7
TAP	34	288	5
TAP	35	0	6
TAP	35	96	7
TAP	35	192	0
HLD	35	192	5	96
TAP	35	288	2
TAP	36	0	0
TAP	36	0	1
TAP	36	96	2
TAP	36	96	7
TAP	36	192	3
TAP	36	192	6
TAP	36	288	4
TAP	36	288	5
TAP	37	0	5
TAP	37	96	4
TAP	37	192	3
HLD	37	192	6	96
TAP	37	288	1
TAP	38	0	2
TAP	38	96	3
HLD	38	192	1	96
TAP	38	192	4
TAP	38	288	6
TAP	39	0	7
TAP	39	96	0
TAP	39	192	1
TAP	39	288	2
STR	40	0	3
SI_	40	0	3	96	96	0
STR	40	0	4
SI_	40	0	4	96	96	7
TAP	41	0	2
TAP	41	96	4
TAP	41	144	4
TAP	41	192	3
TAP	41	288	6
TAP	41	288	7
TAP	42	0	5
TAP	42	96	3
TAP	42	144	3
TAP	42	192	4
TAP	42	288	0
TAP	42	288	1
TAP	43	0	2
TAP	43	96	4
TAP	43	144	4
TAP	43	192	3
TAP	43	288	0
TAP	43	288	6
TAP	44	0	5
TAP	44	96	3
TAP	44	144	3
TAP	44	192	4
TAP	44	288	1
TAP	44	288	7
HLD	45	0	1	96
TAP	45	96	0
HLD	45	192	6	96
TAP	45	288	7
HLD	46	0	2	96
TAP	46	96	3
HLD	46	192	5	96
TAP	46	288	4
TAP	47	0	3
TAP	47	96	4
HLD	47	192	2	96
HLD	47	192	5	96
TAP	48	0	0
TAP	48	0	7
STR	48	96	0
SI_	48	96	0	96	48	4
STR	48	96	7
SI_	48	96	7	96	48	3
TAP	49	0	2
TAP	49	96	7
TAP	49	144	7
STR	49	192	0
SI_	49	192	0	96	48	4
TAP	50	0	5
TAP	50	96	0
TAP	50	144	0
STR	50	192	7
SI_	50	192	7	96	48	3
TAP	51	0	0
TAP	51	96	7
TAP	51	144	7
STR	51	192	1
SI_	51	192	1	96	48	4
TAP	52	0	7
TAP	52	96	0
TAP	52	144	0
STR	52	192	6
SI_	52	192	6	96	48	3
TAP	53	0	1
TAP	53	96	0
TAP	53	96	2
TAP	53	192	6
TAP	53	288	5
TAP	53	288	7
TAP	54	0	2
TAP	54	96	1
TAP	54	96	3
TAP	54	192	5
TAP	54	288	4
TAP	54	288	6
HLD	55	0	3	96
HLD	55	96	1	96
HLD	55	192	0	96
HLD	55	288	7	96
HLD	56	0	5	96
HLD	56	96	4	96
BRK	56	192	3
BRK	56	288	1
BRK	56	288	6
TAP	57	0	7
TAP	57	48	7
TAP	57	144	0
TAP	57	192	0
TAP	57	288	1
TAP	57	336	1
TAP	58	48	2
TAP	58	96	2
TAP	58	192	3
TAP	58	240	3
TAP	58	336	4
TAP	59	0	4
TAP	59	96	5
TAP	59	144	5
TAP	59	240	6
TAP	59	288	6
TAP	60	0	0
TAP	60	0	6
TAP	60	96	0
TAP	60	96	6
TAP	60	192	1
TAP	60	192	7
TAP	60	288	1
TAP	60	288	7
TAP	61	0	0
TAP	61	48	0
TAP	61	144	7
TAP	61	192	7
TAP	61	288	6
TAP	61	336	6
TAP	62	48	5
TAP	62	96	5
TAP	62	192	4
TAP	62	240	4
TAP	62	336	3
TAP	63	0	3
TAP	63	96	2
TAP	63	144	2
TAP	63	240	1
TAP	63	288	1
HLD	64	0	0	192
STR	64	192	6
SI_	64	192	6	96	48	1
STR	65	0	0
SI_	65	0	0	96	48	3
STR	65	144	7
SI_	65	144	7	96	48	4
STR	65	288	1
SI_	65	288	1	96	48	4
STR	66	48	6
SI_	66	48	6	96	48	3
STR	66	192	0
SI_	66	192	0	96	48	3
STR	66	336	7
SI_	66	336	7	96	48	4
STR	67	96	1
SI_	67	96	1	96	48	4
STR	67	240	6
SI_	67	240	6	96	48	3
STR	68	0	0
SI_	68	0	0	96	48	3
STR	68	144	7
SI_	68	144	7	96	48	4
STR	68	288	1
SI_	68	288	1	96	48	4
STR	69	48	6
SI_	69	48	6	96	48	3
STR	69	192	0
SI_	69	192	0	96	48	3
STR	69	336	7
SI_	69	336	7	96	48	4
STR	70	96	1
SI_	70	96	1	96	48	4
STR	70	240	6
SI_	70	240	6	96	48	3
TAP	71	0	0
TAP	71	96	1
TAP	71	192	2
TAP	71	288	3
TAP	72	0	4
BRK	72	0	6
TAP	72	96	3
BRK	72	96	5
TAP	72	192	2
BRK	72	192	4
TAP	73	0	0
TAP	73	48	0
TAP	73	144	1
TAP	73	144	7
TAP	73	192	1
TAP	73	192	7
TAP	73	288	6
TAP	73	336	6
TAP	74	48	0
TAP	74	48	5
TAP	74	96	0
TAP	74	96	5
TAP	74	192	2
TAP	74	240	2
TAP	74	336	3
TAP	74	336	6
TAP	75	0	3
TAP	75	0	6
TAP	75	96	5
TAP	75	144	5
TAP	75	240	2
TAP	75	240	4
TAP	75	288	2
TAP	75	288	4
TAP	76	0	1
TAP	76	0	7
TAP	76	96	1
TAP	76	96	7
TAP	76	192	0
TAP	76	192	6
TAP	76	288	0
TAP	76	288	6
TAP	77	0	7
TAP	77	48	7
TAP	77	144	0
TAP	77	144	6
TAP	77	192	0
TAP	77	192	6
TAP	77	288	1
TAP	77	336	1
TAP	78	48	2
TAP	78	48	7
TAP	78	96	2
TAP	78	96	7
TAP	78	192	5
TAP	78	240	5
TAP	78	336	1
TAP	78	336	4
TAP	79	0	1
TAP	79	0	4
TAP	79	96	2
TAP	79	144	2
TAP	79	240	3
TAP	79	240	5
TAP	79	288	3
TAP	79	288	5
STR	80	0	0
SCR	80	0	0	96	96	3
STR	80	0	4
SCR	80	0	4	96	96	7
STR	81	0	1
SI_	81	0	1	96	48	4
STR	81	144	0
SI_	81	144	0	96	48	5
STR	81	288	7
SI_	81	288	7	96	48	2
STR	82	48	6
SI_	82	48	6	96	48	3
STR	82	192	7
SI_	82	192	7	96	48	2
STR	82	336	0
SI_	82	336	0	96	48	5
STR	83	96	1
SI_	83	96	1	96	48	4
STR	83	240	0
SI_	83	240	0	96	48	5
STR	84	0	7
SI_	84	0	7	96	48	2
STR	84	144	6
SI_	84	144	6	96	48	3
STR	84	288	7
SI_	84	288	7	96	48	2
STR	85	48	0
SI_	85	48	0	96	48	5
STR	85	192	1
SI_	85	192	1	96	48	4
STR	85	336	0
SI_	85	336	0	96	48	5
STR	86	96	7
SI_	86	96	7	96	48	2
STR	86	240	6
SI_	86	240	6	96	48	3
TAP	87	0	0
TAP	87	96	1
TAP	87	192	2
TAP	87	288	3
TAP	88	0	4
BRK	88	0	6
TAP	88	96	3
BRK	88	96	5
TAP	88	192	2
BRK	88	192	4
STR	89	0	2
SCL	89	0	2	96	480	5
HLD	89	0	4	576
HLD	91	0	3	576
STR	91	0	5
SCR	91	0	5	96	480	2
STR	93	0	2
SCL	93	0	2	96	672	5
STR	93	0	5
SV_	93	0	5	96	672	2
TAP	96	0	3
TAP	96	96	4
TAP	96	192	3
BRK	96	288	1
BRK	96	288	6
TAP	97	0	1
HLD	97	48	1	576
TAP	97	144	0
TAP	97	240	0
TAP	97	336	7
TAP	98	48	7
TAP	98	144	0
TAP	98	240	0
TAP	99	0	5
HLD	99	48	5	576
TAP	99	144	7
TAP	99	240	7
TAP	99	336	1
TAP	100	48	1
TAP	100	144	7
TAP	100	240	7
TAP	101	0	3
HLD	101	48	3	576
TAP	101	144	1
TAP	101	240	0
TAP	101	336	7
TAP	102	48	6
TAP	102	144	5
TAP	102	240	4
TAP	103	0	0
TAP	103	0	1
TAP	103	96	0
TAP	103	96	1
TAP	103	192	6
TAP	103	192	7
TAP	103	288	6
TAP	103	288	7
BRK	104	0	0
BRK	104	0	7
BRK	104	96	3
BRK	104	96	4
BRK	104	192	1
BRK	104	192	5

T_REC_TAP	334
T_REC_BRK	20
T_REC_XTP	0
T_REC_HLD	35
T_REC_XHO	0
T_REC_STR	49
T_REC_BST	0
T_REC_XST	0
T_REC_TTP	0
T_REC_THO	0
T_REC_SLD	49
T_REC_ALL	487
T_NUM_TAP	383
T_NUM_BRK	20
T_NUM_HLD	35
T_NUM_SLD	49
T_NUM_ALL	487
T_JUDGE_TAP	403
T_JUDGE_HLD	170
T_JUDGE_SLD	49
T_JUDGE_ALL	622
TTM_EACHPAIRS	87
TTM_SCR_TAP	191500
TTM_SCR_BRK	52000
TTM_SCR_HLD	35000
TTM_SCR_SLD	73500
TTM_SCR_ALL	352000
TTM_SCR_S	339500
TTM_SCR_SS	350000
TTM_RAT_ACV	10057

