VERSION	0.00.00	1.03.00
FES_MODE	0
BPM_DEF	200.000	200.000	200.000	200.000
MET_DEF	4	4
RESOLUTION	384
CLK_DEF	384
COMPATIBLE_CODE	MA2

BPM	0	0	200.000
MET	0	0	4	4

TAP	5	0	2
TAP	5	192	1
TAP	6	0	0
TAP	6	192	7
TAP	7	0	6
TAP	7	192	5
TAP	8	0	4
TAP	8	96	4
TAP	8	192	3
TAP	8	288	3
TAP	9	0	4
TAP	9	96	4
TAP	9	192	4
TAP	10	0	5
TAP	10	96	5
TAP	10	192	5
TAP	11	0	6
TAP	11	96	6
TAP	11	192	6
TAP	12	0	7
TAP	12	96	7
TAP	12	192	7
TAP	13	0	0
TAP	13	96	0
TAP	13	192	0
TAP	14	0	1
TAP	14	96	1
TAP	14	192	1
TAP	15	0	2
TAP	15	96	2
TAP	15	192	2
TAP	16	0	3
TAP	16	96	3
TAP	16	192	3
TAP	17	0	2
TAP	17	96	2
TAP	17	192	3
TAP	18	0	5
TAP	18	96	5
TAP	18	192	4
TAP	19	0	6
TAP	19	96	6
TAP	19	192	7
TAP	20	0	1
TAP	20	96	1
TAP	20	192	0
TAP	21	0	2
TAP	21	96	3
TAP	21	192	2
TAP	22	0	1
TAP	22	96	0
TAP	22	192	1
TAP	23	0	6
TAP	23	96	7
TAP	23	192	6
TAP	24	0	5
TAP	24	96	4
TAP	24	192	5
TAP	25	0	3
TAP	25	96	3
TAP	25	192	2
TAP	25	288	2
TAP	26	0	1
TAP	26	96	1
TAP	26	192	0
TAP	27	0	7
TAP	27	96	7
TAP	27	192	6
TAP	27	288	6
TAP	28	0	5
TAP	28	96	5
TAP	28	192	4
TAP	29	0	4
TAP	29	96	5
TAP	29	192	6
TAP	29	288	7
TAP	30	0	0
TAP	30	96	1
TAP	30	192	2
TAP	30	288	3
TAP	31	0	2
TAP	31	96	1
TAP	31	192	0
TAP	31	288	7
TAP	32	0	6
TAP	32	96	5
TAP	32	192	3
TAP	32	192	4
TAP	33	0	4
TAP	33	96	4
TAP	33	192	5
TAP	33	288	5
TAP	34	0	6
TAP	34	96	6
TAP	34	192	7
TAP	35	0	0
TAP	35	96	0
TAP	35	192	1
TAP	35	288	1
TAP	36	0	2
TAP	36	96	2
TAP	36	192	3
TAP	37	0	3
TAP	37	96	2
TAP	37	192	1
TAP	37	288	0
TAP	38	0	7
TAP	38	96	6
TAP	38	192	5
TAP	38	288	4
TAP	39	0	5
TAP	39	96	6
TAP	39	192	7
TAP	39	288	0
TAP	40	0	1
TAP	40	96	2
TAP	40	192	3
TAP	40	192	4
HLD	41	0	2	192
TAP	41	192	3
TAP	42	0	2
TAP	42	96	2
TAP	42	192	2
HLD	43	0	5	192
TAP	43	192	4
TAP	44	0	5
TAP	44	96	5
TAP	44	192	5
HLD	45	0	1	192
TAP	45	192	0
TAP	46	0	1
TAP	46	96	1
TAP	46	192	1
HLD	47	0	6	192
TAP	47	192	7
TAP	48	0	6
TAP	48	96	6
TAP	48	192	6
HLD	49	0	4	192
TAP	49	192	5
TAP	50	0	4
TAP	50	96	4
TAP	50	192	4
TAP	50	192	5
HLD	51	0	3	192
TAP	51	192	2
TAP	52	0	3
TAP	52	96	3
TAP	52	192	2
TAP	52	192	3
HLD	53	0	4	192
HLD	53	192	3	192
TAP	54	0	4
TAP	54	96	4
TAP	54	192	3
TAP	54	192	4
STR	55	0	4
SI_	55	0	4	96	192	7
STR	56	0	0
SI_	56	0	0	96	192	3
TAP	57	0	4
TAP	57	96	4
TAP	57	192	5
TAP	57	288	5
TAP	58	0	6
TAP	58	96	6
TAP	58	192	7
TAP	58	288	7
TAP	59	0	0
TAP	59	96	0
TAP	59	192	1
TAP	59	288	1
TAP	60	0	2
TAP	60	96	2
TAP	60	192	3
TAP	60	192	4
TAP	61	0	1
TAP	61	96	1
TAP	61	192	0
TAP	61	288	0
TAP	62	0	7
TAP	62	96	7
TAP	62	192	6
TAP	62	288	6
TAP	63	0	5
TAP	63	96	5
STR	63	192	4
SUR	63	192	4	96	288	1
TAP	65	0	0
TAP	65	96	1
TAP	65	192	2
TAP	65	288	3
TAP	66	0	7
TAP	66	96	6
TAP	66	192	5
TAP	66	288	4
TAP	67	0	4
TAP	67	96	5
TAP	67	192	6
TAP	67	288	7
TAP	68	0	3
TAP	68	96	2
TAP	68	192	1
TAP	68	288	0
TAP	69	0	6
TAP	69	96	7
TAP	69	192	0
TAP	69	288	1
TAP	70	0	5
TAP	70	96	4
TAP	70	192	3
TAP	70	288	2
TAP	71	0	2
TAP	71	96	3
TAP	71	192	4
TAP	71	288	5
TAP	72	0	6
TAP	72	96	7
TAP	72	192	0
TAP	72	192	7
TAP	73	0	0
TAP	73	96	0
TAP	73	192	0
TAP	73	192	1
TAP	73	288	0
TAP	73	288	1
TAP	74	0	2
TAP	74	96	2
TAP	74	192	2
TAP	74	192	3
TAP	74	288	2
TAP	74	288	3
TAP	75	0	4
TAP	75	96	4
TAP	75	192	4
TAP	75	192	5
TAP	75	288	4
TAP	75	288	5
TAP	76	0	6
TAP	76	96	6
TAP	76	192	6
TAP	76	192	7
TAP	77	0	7
TAP	77	96	7
TAP	77	192	6
TAP	77	192	7
TAP	77	288	6
TAP	77	288	7
TAP	78	0	5
TAP	78	96	5
TAP	78	192	4
TAP	78	192	5
TAP	78	288	4
TAP	78	288	5
TAP	79	0	3
TAP	79	96	3
STR	79	192	2
SSL	79	192	2	96	288	6
TAP	81	0	7
TAP	81	96	6
TAP	81	192	0
TAP	81	288	1
TAP	82	0	3
TAP	82	96	2
TAP	82	192	4
TAP	82	288	5
TAP	83	0	3
TAP	83	96	1
TAP	83	192	7
TAP	83	288	5
TAP	84	0	4
TAP	84	96	6
TAP	84	192	0
TAP	84	288	2
TAP	85	0	3
TAP	85	96	3
TAP	85	192	3
TAP	85	288	2
TAP	85	288	3
TAP	86	0	4
TAP	86	96	4
TAP	86	192	4
TAP	86	288	4
TAP	86	288	5
TAP	87	0	5
TAP	87	96	6
TAP	87	192	7
TAP	87	288	0
TAP	88	0	1
TAP	88	96	2
TAP	88	192	3
TAP	88	192	4
STR	89	0	3
SCL	89	0	3	96	480	4
STR	91	0	4
SCR	91	0	4	96	480	3
STR	93	0	3
SCL	93	0	3	96	192	0
STR	94	0	4
SCR	94	0	4	96	192	7
STR	95	0	0
SCR	95	0	0	96	192	3
STR	96	0	7
SCL	96	0	7	96	192	4
TAP	97	0	2
TAP	97	96	3
TAP	97	192	2
TAP	97	192	3
TAP	98	0	5
TAP	98	96	4
TAP	98	192	4
TAP	98	192	5
TAP	99	0	6
TAP	99	96	7
TAP	99	192	6
TAP	99	192	7
TAP	100	0	1
TAP	100	96	0
TAP	100	192	0
TAP	100	192	1
TAP	101	0	7
TAP	101	96	0
TAP	101	192	1
TAP	101	192	6
TAP	102	0	0
TAP	102	0	7
TAP	102	96	1
TAP	102	96	6
TAP	102	192	2
TAP	102	192	5
TAP	103	0	3
TAP	103	0	4
TAP	103	96	3
TAP	103	96	4
TAP	103	192	2
TAP	103	192	5
TAP	103	288	2
TAP	103	288	5
TAP	104	0	1
TAP	104	0	6
TAP	104	96	1
TAP	104	96	6
BRK	104	192	0
BRK	104	192	7

T_REC_TAP	314
T_REC_BRK	2
T_REC_XTP	0
T_REC_HLD	8
T_REC_XHO	0
T_REC_STR	10
T_REC_BST	0
T_REC_XST	0
T_REC_TTP	0
T_REC_THO	0
T_REC_SLD	10
T_REC_ALL	344
T_NUM_TAP	324
T_NUM_BRK	2
T_NUM_HLD	8
T_NUM_SLD	10
T_NUM_ALL	344
T_JUDGE_TAP	326
T_JUDGE_HLD	32
T_JUDGE_SLD	10
T_JUDGE_ALL	368
TTM_EACHPAIRS	36
TTM_SCR_TAP	162000
TTM_SCR_BRK	5200
TTM_SCR_HLD	8000
TTM_SCR_SLD	15000
TTM_SCR_ALL	190200
TTM_SCR_S	184300
TTM_SCR_SS	190000
TTM_RAT_ACV	10010

