VERSION	0.00.00	1.03.00
FES_MODE	0
BPM_DEF	200.000	200.000	200.000	200.000
MET_DEF	4	4
RESOLUTION	384
CLK_DEF	384
COMPATIBLE_CODE	MA2

BPM	0	0	200.000
MET	0	0	4	4

TAP	9	0	0
TAP	9	192	0
TAP	10	0	0
TAP	11	0	1
TAP	11	192	1
TAP	12	0	1
TAP	13	0	2
TAP	13	192	2
TAP	14	0	2
TAP	15	0	3
TAP	15	192	3
TAP	16	0	3
TAP	17	0	4
TAP	17	192	4
TAP	18	0	4
TAP	19	0	5
TAP	19	192	5
TAP	20	0	5
TAP	21	0	6
TAP	21	192	6
TAP	22	0	6
TAP	23	0	7
TAP	23	192	7
BRK	24	0	7
TAP	25	0	0
TAP	26	0	0
TAP	26	0	7
TAP	27	0	1
TAP	28	0	0
TAP	28	0	1
TAP	29	0	2
TAP	30	0	2
TAP	30	0	3
TAP	31	0	3
TAP	32	0	3
TAP	32	0	4
TAP	33	0	4
TAP	34	0	3
TAP	34	0	4
TAP	35	0	5
TAP	36	0	4
TAP	36	0	5
TAP	37	0	6
TAP	38	0	6
TAP	38	0	7
TAP	39	0	7
TAP	40	0	0
TAP	40	0	7
STR	41	0	0
SI_	41	0	0	96	480	3
TAP	44	0	4
STR	45	0	4
SI_	45	0	4	96	480	7
BRK	48	0	0
STR	49	0	0
SI_	49	0	0	96	480	4
TAP	52	0	5
HLD	53	0	5	384
TAP	55	0	4
TAP	55	192	4
TAP	56	0	3
TAP	56	192	3
TAP	57	0	2
TAP	57	192	2
TAP	58	0	1
TAP	58	192	1
TAP	59	0	0
TAP	59	192	0
TAP	60	0	0
TAP	60	0	7
TAP	61	0	6
TAP	61	192	6
TAP	62	0	5
TAP	62	192	5
TAP	63	0	4
TAP	63	192	4
TAP	64	0	3
TAP	64	0	4
TAP	65	0	4
TAP	65	192	4
TAP	66	0	5
TAP	66	192	5
TAP	67	0	6
TAP	67	192	6
TAP	68	0	7
TAP	68	192	7
TAP	69	0	0
TAP	69	192	0
TAP	70	0	1
TAP	70	192	1
TAP	71	0	2
TAP	71	192	2
TAP	72	0	3
TAP	72	0	4
TAP	73	0	5
TAP	73	192	5
TAP	74	0	6
TAP	74	192	6
TAP	75	0	7
TAP	75	192	7
HLD	76	0	0	192
TAP	77	0	1
TAP	77	192	1
TAP	78	0	2
TAP	78	192	2
TAP	79	0	3
TAP	79	192	3
HLD	80	0	4	192
TAP	81	0	3
TAP	81	192	3
TAP	82	0	2
TAP	82	192	2
TAP	83	0	1
TAP	83	192	1
TAP	84	0	0
TAP	84	192	0
TAP	85	0	7
TAP	85	192	7
TAP	86	0	6
TAP	86	192	6
TAP	87	0	5
TAP	87	192	5
BRK	88	0	3
BRK	88	0	4
STR	89	0	3
SI_	89	0	3	96	480	0
STR	93	0	4
SI_	93	0	4	96	480	7
TAP	97	0	0
TAP	97	192	0
TAP	98	0	0
TAP	98	0	7
TAP	99	0	1
TAP	99	192	1
TAP	100	0	0
TAP	100	0	1
TAP	101	0	2
TAP	101	192	2
TAP	102	0	2
TAP	102	0	3
TAP	103	0	3
TAP	103	192	3
TAP	104	0	4
BRK	104	192	4

T_REC_TAP	126
T_REC_BRK	5
T_REC_XTP	0
T_REC_HLD	3
T_REC_XHO	0
T_REC_STR	5
T_REC_BST	0
T_REC_XST	0
T_REC_TTP	0
T_REC_THO	0
T_REC_SLD	5
T_REC_ALL	144
T_NUM_TAP	131
T_NUM_BRK	5
T_NUM_HLD	3
T_NUM_SLD	5
T_NUM_ALL	144
T_JUDGE_TAP	136
T_JUDGE_HLD	16
T_JUDGE_SLD	5
T_JUDGE_ALL	157
TTM_EACHPAIRS	15
TTM_SCR_TAP	65500
TTM_SCR_BRK	13000
TTM_SCR_HLD	3000
TTM_SCR_SLD	7500
TTM_SCR_ALL	89000
TTM_SCR_S	85850
TTM_SCR_SS	88500
TTM_RAT_ACV	10056

