VERSION	0.00.00	1.03.00
FES_MODE	0
BPM_DEF	266.000	266.000	266.000	266.000
MET_DEF	4	4
RESOLUTION	384
CLK_DEF	288
COMPATIBLE_CODE	MA2

BPM	0	0	266.000
MET	0	0	4	3

HLD	1	192	0	576
HLD	3	0	2	576
HLD	4	192	4	576
HLD	6	0	6	960
HLD	7	192	1	384
TAP	9	0	2
TAP	9	48	3
TAP	9	96	2
TAP	9	144	3
TAP	9	192	1
TAP	9	192	4
TAP	9	288	4
TAP	9	288	5
TAP	10	0	5
TAP	10	48	4
TAP	10	96	6
TAP	10	144	4
TAP	10	192	6
TAP	10	240	5
TAP	10	288	6
TAP	10	336	4
TAP	11	0	5
TAP	11	96	2
TAP	11	144	3
TAP	11	192	2
TAP	11	240	3
TAP	11	288	1
TAP	11	288	4
TAP	12	0	6
TAP	12	48	5
TAP	12	96	6
TAP	12	144	5
TAP	12	192	4
TAP	12	192	7
TAP	12	288	2
TAP	12	288	3
TAP	13	0	1
TAP	13	0	4
TAP	13	96	4
TAP	13	96	5
TAP	13	192	0
TAP	13	216	7
TAP	13	240	0
TAP	13	264	7
TAP	13	288	0
TAP	13	312	7
TAP	13	336	0
BRK	14	0	5
BRK	14	0	7
BRK	14	96	0
BRK	14	96	2
BRK	14	192	0
BRK	14	192	7
TAP	14	288	2
TAP	14	336	3
TAP	15	0	2
TAP	15	48	3
TAP	15	96	2
TAP	15	192	5
TAP	15	240	4
TAP	15	288	5
TAP	15	336	4
TAP	16	0	5
TAP	16	48	5
TAP	16	144	2
TAP	16	192	3
TAP	16	240	2
TAP	16	288	3
TAP	16	336	2
TAP	17	0	2
TAP	17	96	5
TAP	17	144	4
TAP	17	192	5
TAP	17	240	5
TAP	17	336	2
TAP	18	0	3
TAP	18	48	2
TAP	18	96	2
TAP	18	192	5
TAP	18	240	4
TAP	18	288	5
TAP	18	336	4
TAP	19	0	5
TAP	19	48	5
TAP	19	144	2
TAP	19	192	3
TAP	19	240	2
TAP	19	288	3
TAP	19	336	2
TAP	20	0	2
TAP	20	96	5
TAP	20	144	4
TAP	20	192	6
TAP	20	240	3
TAP	20	288	5
TAP	20	336	4
TAP	21	0	6
TAP	21	48	3
TAP	21	96	6
TAP	21	192	2
TAP	21	240	3
TAP	21	288	1
TAP	21	336	4
TAP	22	0	1
TAP	22	48	1
TAP	22	144	5
TAP	22	192	4
TAP	22	240	6
TAP	22	288	3
TAP	22	336	6
TAP	23	0	6
TAP	23	96	2
TAP	23	144	3
TAP	23	192	1
TAP	23	240	1
TAP	23	336	5
TAP	24	0	4
TAP	24	48	6
TAP	24	96	6
TAP	24	192	2
TAP	24	240	3
TAP	24	288	2
TAP	24	336	3
TAP	25	0	2
TAP	25	48	5
TAP	25	96	4
TAP	25	144	5
TAP	25	192	4
TAP	25	240	5
TAP	25	288	5
TAP	26	0	2
TAP	26	48	3
TAP	26	96	1
TAP	26	144	3
TAP	26	192	2
TAP	26	240	3
TAP	26	288	1
TAP	26	336	3
TAP	27	0	1
TAP	27	48	1
TAP	27	144	5
TAP	27	192	4
TAP	27	240	6
TAP	27	288	4
TAP	27	336	5
TAP	28	0	4
TAP	28	48	6
TAP	28	96	4
TAP	28	144	6
TAP	28	240	2
TAP	28	288	3
TAP	28	336	1
TAP	29	0	4
TAP	29	48	2
TAP	29	96	3
TAP	29	144	1
TAP	29	192	4
TAP	29	240	1
TAP	29	288	1
TAP	30	0	5
TAP	30	48	4
TAP	30	96	6
TAP	30	144	3
TAP	30	192	5
TAP	30	240	4
TAP	30	288	6
TAP	30	336	3
TAP	31	0	6
TAP	31	96	2
TAP	31	144	3
TAP	31	192	2
TAP	31	240	1
TAP	31	288	2
TAP	31	336	3
TAP	32	0	2
TAP	32	48	1
TAP	32	96	2
TAP	32	144	2
TAP	32	240	5
TAP	32	288	4
TAP	32	336	5
TAP	33	0	6
TAP	33	48	5
TAP	33	96	4
TAP	33	144	5
TAP	33	192	6
TAP	33	240	5
TAP	33	336	2
TAP	34	0	3
TAP	34	48	2
TAP	34	96	1
TAP	34	144	2
TAP	34	192	3
TAP	34	240	2
TAP	34	288	1
TAP	34	336	2
TAP	35	0	2
TAP	35	96	5
TAP	35	144	4
TAP	35	192	5
TAP	35	240	6
TAP	35	288	5
TAP	35	336	4
TAP	36	0	5
TAP	36	48	6
TAP	36	96	5
TAP	36	192	2
TAP	36	240	3
TAP	36	336	3
HLD	37	0	1	96
HLD	37	96	3	96
HLD	37	192	5	96
HLD	37	288	7	96
TAP	38	0	1
TAP	38	96	5
TAP	38	144	4
TAP	38	240	4
HLD	38	288	6	96
HLD	39	0	4	96
HLD	39	96	2	96
HLD	39	192	0	96
TAP	39	288	6
TAP	40	0	2
TAP	40	48	3
TAP	40	144	3
HLD	40	192	1	96
HLD	40	288	3	96
HLD	41	0	5	96
HLD	41	96	7	96
TAP	41	192	1
TAP	41	288	5
TAP	41	336	4
TAP	42	48	4
HLD	42	96	6	96
HLD	42	192	4	96
HLD	42	288	2	96
HLD	43	0	0	96
TAP	43	96	6
TAP	43	192	0
TAP	43	192	7
TAP	43	288	5
TAP	43	336	4
TAP	44	0	5
TAP	44	48	3
TAP	44	96	6
TAP	44	192	2
TAP	44	240	3
TAP	44	288	2
TAP	44	336	4
TAP	45	0	1
TAP	45	96	5
TAP	45	144	4
TAP	45	192	5
TAP	45	240	3
TAP	45	288	6
TAP	46	0	2
TAP	46	48	3
TAP	46	96	2
TAP	46	144	4
TAP	46	192	1
TAP	46	240	6
TAP	46	264	7
TAP	46	288	0
TAP	46	312	1
TAP	46	336	2
TAP	46	360	3
TAP	47	0	4
TAP	47	24	5
TAP	47	48	6
TAP	47	72	7
TAP	47	96	0
TAP	47	120	1
TAP	47	144	2
TAP	47	168	3
TAP	47	192	4
TAP	47	216	5
TAP	47	240	6
TAP	47	264	7
TAP	47	288	3
TAP	47	312	2
TAP	47	336	1
TAP	47	360	0
TAP	48	0	7
TAP	48	24	6
TAP	48	48	5
TAP	48	72	4
TAP	48	96	3
TAP	48	120	2
TAP	48	144	1
TAP	48	168	0
TAP	48	192	7
TAP	49	0	6
TAP	49	48	0
TAP	49	96	6
TAP	49	144	7
TAP	49	192	5
TAP	49	240	0
TAP	49	288	4
TAP	49	336	1
TAP	50	0	3
TAP	50	96	3
TAP	50	96	4
BRK	50	192	1
BRK	50	192	6
STR	52	0	1
SI_	52	0	1	96	48	6
STR	52	144	5
SI_	52	144	5	96	48	2
STR	52	288	1
SI_	52	288	1	96	48	6
TAP	53	0	5
TAP	53	96	2
TAP	53	96	5
STR	53	240	2
SI_	53	240	2	96	48	5
TAP	53	336	7
TAP	54	48	6
TAP	54	96	6
STR	54	192	1
SI_	54	192	1	96	48	6
STR	54	336	5
SI_	54	336	5	96	48	2
STR	55	96	1
SI_	55	96	1	96	48	6
TAP	55	192	5
TAP	55	288	2
TAP	55	288	5
TAP	56	48	7
TAP	56	96	0
TAP	56	144	6
TAP	56	192	1
TAP	56	240	5
TAP	56	288	2
STR	57	0	6
SI_	57	0	6	96	48	1
STR	57	144	2
SI_	57	144	2	96	48	5
STR	57	288	6
SI_	57	288	6	96	48	1
TAP	58	0	2
TAP	58	96	2
TAP	58	96	5
TAP	58	240	0
TAP	58	288	7
TAP	58	336	1
TAP	59	0	6
TAP	59	48	2
TAP	59	96	5
TAP	59	144	3
TAP	59	192	4
TAP	59	240	3
STR	59	240	4
SI_	59	240	4	96	48	7
TAP	60	48	3
TAP	60	96	4
TAP	60	192	0
TAP	60	240	7
BRK	60	288	0
TAP	61	0	6
TAP	61	0	7
TAP	61	48	6
TAP	61	48	7
BRK	61	144	0
BRK	61	144	5
TAP	61	288	0
TAP	61	288	1
TAP	61	336	0
TAP	61	336	1
BRK	62	48	2
BRK	62	48	7
STR	62	192	1
SI_	62	192	1	96	48	6
STR	62	336	5
SI_	62	336	5	96	48	2
TAP	63	96	1
TAP	63	192	1
TAP	63	192	6
STR	63	288	5
SI_	63	288	5	96	48	2
TAP	64	96	1
TAP	64	144	1
TAP	64	240	1
TAP	64	288	6
STR	65	0	6
SI_	65	0	6	96	48	1
STR	65	144	2
SI_	65	144	2	96	48	5
TAP	65	288	6
TAP	66	0	1
TAP	66	0	6
STR	66	96	2
SI_	66	96	2	96	48	5
TAP	66	240	0
TAP	66	288	7
TAP	66	336	1
TAP	67	0	6
TAP	67	48	2
TAP	67	96	5
TAP	67	144	2
STR	67	192	2
SI_	67	192	2	96	48	5
STR	67	336	6
SI_	67	336	6	96	48	1
TAP	68	96	2
TAP	68	192	2
TAP	68	192	5
STR	68	288	5
SI_	68	288	5	96	48	2
STR	69	48	1
SI_	69	48	1	96	48	6
TAP	69	192	5
BRK	69	288	1
BRK	69	288	6
TAP	70	0	0
TAP	70	0	7
TAP	70	48	0
TAP	70	48	7
TAP	70	144	0
TAP	70	144	7
TAP	70	288	1
TAP	70	288	3
TAP	71	0	0
TAP	71	0	7
TAP	71	96	4
TAP	71	96	6
TAP	71	192	2
TAP	71	240	3
TAP	71	288	1
TAP	71	336	4
TAP	72	0	2
TAP	72	48	3
TAP	72	96	2
BRK	72	192	1
BRK	72	192	3
TAP	72	288	7
TAP	73	0	3
TAP	73	0	4
TAP	73	48	3
TAP	73	48	4
TAP	73	144	3
TAP	73	144	4
TAP	73	288	2
TAP	73	288	3
TAP	74	0	1
TAP	74	0	2
TAP	74	96	0
TAP	74	96	1
TAP	74	192	0
TAP	74	192	7
TAP	74	288	5
TAP	74	336	4
TAP	75	0	5
TAP	75	48	6
TAP	75	96	5
BRK	75	192	4
BRK	75	192	6
TAP	75	336	0
TAP	75	336	1
TAP	76	0	0
TAP	76	0	1
TAP	76	96	3
TAP	76	96	4
TAP	76	192	6
TAP	76	192	7
TAP	76	240	6
TAP	76	240	7
TAP	76	336	3
TAP	76	336	4
TAP	77	48	0
TAP	77	48	7
TAP	77	96	0
TAP	77	96	7
TAP	77	192	2
TAP	77	240	3
TAP	77	288	2
TAP	77	336	1
TAP	78	0	2
BRK	78	96	1
BRK	78	96	3
TAP	78	192	7
TAP	78	336	6
TAP	78	336	7
TAP	79	0	6
TAP	79	0	7
TAP	79	96	3
TAP	79	96	4
TAP	79	192	0
TAP	79	192	1
TAP	79	240	0
TAP	79	240	1
TAP	79	336	3
TAP	79	336	4
TAP	80	48	1
TAP	80	48	6
TAP	80	144	3
TAP	80	144	4
TAP	80	192	3
TAP	80	192	4
TAP	80	240	3
TAP	80	288	5
TAP	80	336	2
TAP	81	0	4
BRK	81	96	1
BRK	81	96	6
HLD	81	192	5	384
TAP	82	0	4
TAP	82	96	4
TAP	82	192	4
TAP	82	336	1
TAP	82	336	3
TAP	83	48	2
TAP	83	96	3
TAP	83	192	0
TAP	83	288	1
HLD	84	0	2	384
TAP	84	192	3
TAP	84	288	3
TAP	85	0	3
TAP	85	144	4
TAP	85	144	6
TAP	85	240	5
TAP	85	288	4
TAP	86	0	7
TAP	86	96	6
HLD	86	192	5	480
TAP	87	0	4
TAP	87	96	4
TAP	87	192	4
TAP	87	288	4
TAP	87	336	5
TAP	88	48	0
TAP	88	48	7
TAP	88	144	2
TAP	88	192	3
TAP	88	288	2
TAP	88	288	4
TAP	89	0	3
TAP	89	0	5
TAP	89	144	5
TAP	89	192	4
TAP	89	288	3
TAP	89	288	5
TAP	90	0	2
TAP	90	0	4
TAP	90	144	0
TAP	90	144	7
TAP	90	240	5
TAP	90	288	4
TAP	91	0	3
TAP	91	0	5
TAP	91	96	2
TAP	91	96	4
TAP	91	192	0
TAP	91	192	6
TAP	91	240	1
TAP	91	288	1
TAP	91	336	7
TAP	92	0	7
TAP	92	48	0
TAP	92	96	6
TAP	92	144	0
TAP	92	192	7
TAP	92	240	0
TAP	92	240	6
TAP	92	336	2
TAP	92	336	4
TAP	93	0	5
TAP	93	48	5
TAP	93	96	3
TAP	93	144	3
TAP	93	192	4
TAP	93	240	2
TAP	93	288	4
TAP	93	336	3
TAP	93	336	5
TAP	94	48	1
TAP	94	48	7
TAP	94	96	6
TAP	94	144	6
TAP	94	192	0
TAP	94	240	0
TAP	94	288	7
TAP	94	336	1
TAP	95	0	7
TAP	95	48	0
TAP	95	96	1
TAP	95	96	7
TAP	95	192	3
TAP	95	192	5
TAP	95	240	2
TAP	95	288	2
TAP	95	336	4
TAP	96	0	4
TAP	96	48	3
TAP	96	96	5
TAP	96	144	3
TAP	96	192	2
TAP	96	192	4
TAP	96	288	0
TAP	96	288	6
TAP	96	336	1
TAP	97	0	1
TAP	97	48	7
TAP	97	96	7
TAP	97	144	0
TAP	97	192	6
TAP	97	240	0
TAP	97	288	7
TAP	97	336	0
TAP	97	336	6
TAP	98	48	2
TAP	98	48	4
TAP	98	96	5
TAP	98	144	5
TAP	98	192	3
TAP	98	240	3
TAP	98	288	4
TAP	98	336	2
TAP	99	0	4
TAP	99	48	3
TAP	99	48	5
TAP	99	144	1
TAP	99	144	7
TAP	99	192	6
TAP	99	240	6
TAP	99	288	0
TAP	99	336	0
TAP	100	0	7
TAP	100	48	1
TAP	100	96	7
TAP	100	144	0
TAP	100	192	1
TAP	100	192	7
TAP	100	288	3
TAP	100	288	5
TAP	100	336	2
TAP	101	0	2
TAP	101	48	4
TAP	101	96	4
TAP	101	144	3
TAP	101	192	5
TAP	101	240	3
TAP	101	288	2
TAP	101	288	4
TAP	102	0	2
TAP	102	0	5
HLD	102	144	5	96
TAP	102	240	4
TAP	102	288	5
TAP	102	336	3
TAP	103	0	4
TAP	103	48	2
TAP	103	96	3
STR	103	192	2
SI_	103	192	2	96	48	5
STR	103	288	6
SI_	103	288	6	96	48	1
TAP	103	336	6
STR	104	48	0
SI_	104	48	0	96	48	4
TAP	104	96	0
STR	104	192	5
SI_	104	192	5	96	48	7
STR	104	288	1
SI_	104	288	1	96	48	3
STR	105	0	6
SI_	105	0	6	96	48	2
TAP	105	48	6
STR	105	144	4
SI_	105	144	4	96	48	1
TAP	105	192	4
STR	105	240	5
SI_	105	240	5	96	48	0
TAP	105	288	5
STR	106	0	2
SI_	106	0	2	96	48	5
STR	106	96	6
SI_	106	96	6	96	48	1
TAP	106	144	6
TAP	106	240	0
STR	106	288	0
SI_	106	288	0	96	48	3
STR	107	0	7
SI_	107	0	7	96	48	4
STR	107	96	0
SI_	107	96	0	96	48	2
STR	107	240	7
SI_	107	240	7	96	48	5
STR	108	0	3
SI_	108	0	3	96	48	1
STR	108	96	4
SI_	108	96	4	96	48	6
STR	108	192	2
SI_	108	192	2	96	48	5
STR	108	288	6
SI_	108	288	6	96	48	1
TAP	109	48	2
STR	109	96	2
SI_	109	96	2	96	48	7
STR	109	192	5
SI_	109	192	5	96	48	0
STR	109	288	6
SI_	109	288	6	96	48	1
STR	110	48	2
SI_	110	48	2	96	48	5
STR	110	192	0
SI_	110	192	0	96	48	4
STR	110	288	7
SI_	110	288	7	96	48	3
TAP	111	0	1
STR	111	48	1
SI_	111	48	1	96	48	6
STR	111	144	5
SI_	111	144	5	96	48	2
STR	111	240	1
SI_	111	240	1	96	48	6
TAP	112	0	5
TAP	112	96	2
TAP	112	192	6
TAP	112	192	7
TAP	112	240	6
TAP	112	240	7
BRK	112	336	1
BRK	112	336	4
TAP	113	96	0
TAP	113	96	1
TAP	113	144	0
TAP	113	144	1
BRK	113	240	3
BRK	113	240	6
STR	114	0	3
SI_	114	0	3	96	48	0
STR	114	96	4
SI_	114	96	4	96	48	7
TAP	114	144	4
STR	114	240	3
SI_	114	240	3	96	48	0
TAP	114	288	3
STR	115	0	4
SI_	115	0	4	96	48	7
STR	115	96	0
SUR	115	96	0	96	144	3
TAP	115	336	7
STR	116	0	7
SI_	116	0	7	96	48	4
STR	116	192	1
SI_	116	192	1	96	48	6
STR	116	288	5
SI_	116	288	5	96	48	2
TAP	116	336	5
STR	117	48	1
SI_	117	48	1	96	48	6
TAP	117	96	1
STR	117	192	5
SUL	117	192	5	96	144	2
TAP	118	48	0
TAP	118	96	0
TAP	118	144	7
TAP	118	192	1
TAP	118	240	6
TAP	118	288	2
TAP	118	336	5
STR	119	0	3
SI_	119	0	3	96	48	1
STR	119	96	5
SI_	119	96	5	96	48	7
TAP	119	144	5
STR	119	240	4
SI_	119	240	4	96	48	0
TAP	119	288	4
STR	120	0	3
SI_	120	0	3	96	48	7
STR	120	96	0
SI_	120	96	0	96	48	4
STR	120	192	7
SI_	120	192	7	96	48	5
TAP	120	240	7
STR	120	336	2
SI_	120	336	2	96	48	0
TAP	121	0	2
STR	121	96	3
SI_	121	96	3	96	48	7
BRK	121	192	0
TAP	121	288	2
TAP	121	336	3
TAP	122	0	2
TAP	122	48	1
TAP	122	96	2
TAP	122	144	3
TAP	122	240	1
TAP	122	288	0
TAP	122	336	1
TAP	123	0	7
TAP	123	48	0
TAP	123	144	5
TAP	123	192	4
TAP	123	240	6
TAP	123	288	3
BRK	124	0	2
BRK	124	0	4
BRK	124	96	3
BRK	124	96	5
TAP	124	192	1
TAP	124	192	7
TAP	124	240	2
TAP	124	288	2
TAP	124	336	0
TAP	125	0	0
TAP	125	48	1
TAP	125	96	7
TAP	125	144	1
TAP	125	192	0
TAP	125	240	1
TAP	125	240	7
TAP	125	336	3
TAP	125	336	5
TAP	126	0	6
TAP	126	48	6
TAP	126	96	4
TAP	126	144	4
TAP	126	192	5
TAP	126	240	3
TAP	126	288	5
TAP	126	336	4
TAP	126	336	6
STR	127	48	3
SI_	127	48	3	96	48	1
TAP	127	96	3
STR	127	144	4
SI_	127	144	4	96	48	6
TAP	127	192	4
STR	127	240	3
SI_	127	240	3	96	48	7
TAP	127	288	3
STR	127	336	4
SI_	127	336	4	96	48	0
TAP	128	0	4
TAP	128	48	3
TAP	128	96	3
STR	128	192	7
SI_	128	192	7	96	48	5
TAP	128	240	7
STR	128	288	0
SI_	128	288	0	96	48	2
TAP	128	336	0
STR	129	0	7
SI_	129	0	7	96	48	3
TAP	129	48	7
STR	129	96	0
SI_	129	96	0	96	48	4
TAP	129	144	0
TAP	129	192	7
TAP	129	288	0
TAP	129	288	6
TAP	129	336	5
TAP	130	0	5
TAP	130	48	7
TAP	130	96	7
TAP	130	144	6
TAP	130	192	0
TAP	130	240	6
TAP	130	288	7
TAP	130	336	0
TAP	130	336	6
TAP	131	48	2
TAP	131	48	4
TAP	131	96	1
TAP	131	144	1
TAP	131	192	3
TAP	131	240	3
TAP	131	288	2
TAP	131	336	4
TAP	132	0	2
TAP	132	48	1
TAP	132	48	3
STR	132	144	2
SI_	132	144	2	96	48	6
TAP	132	192	2
STR	132	240	5
SI_	132	240	5	96	48	1
TAP	132	288	5
STR	132	336	0
SI_	132	336	0	96	48	4
TAP	133	0	0
STR	133	48	7
SI_	133	48	7	96	48	3
TAP	133	96	7
TAP	133	144	0
TAP	133	192	0
STR	133	288	5
SI_	133	288	5	96	48	1
TAP	133	336	5
STR	134	0	2
SI_	134	0	2	96	48	6
TAP	134	48	2
STR	134	96	7
SI_	134	96	7	96	48	3
TAP	134	144	7
TAP	134	192	0
TAP	134	240	0
BRK	134	288	1
BRK	134	288	6

T_REC_TAP	681
T_REC_BRK	34
T_REC_XTP	0
T_REC_HLD	25
T_REC_XHO	0
T_REC_STR	81
T_REC_BST	0
T_REC_XST	0
T_REC_TTP	0
T_REC_THO	0
T_REC_SLD	81
T_REC_ALL	902
T_NUM_TAP	762
T_NUM_BRK	34
T_NUM_HLD	25
T_NUM_SLD	81
T_NUM_ALL	902
T_JUDGE_TAP	796
T_JUDGE_HLD	62
T_JUDGE_SLD	81
T_JUDGE_ALL	939
TTM_EACHPAIRS	105
TTM_SCR_TAP	381000
TTM_SCR_BRK	88400
TTM_SCR_HLD	25000
TTM_SCR_SLD	121500
TTM_SCR_ALL	615900
TTM_SCR_S	594150
TTM_SCR_SS	612500
TTM_RAT_ACV	10055

