VERSION	0.00.00	1.03.00
FES_MODE	0
BPM_DEF	266.000	266.000	266.000	266.000
MET_DEF	4	4
RESOLUTION	384
CLK_DEF	288
COMPATIBLE_CODE	MA2

BPM	0	0	266.000
MET	0	0	4	3

HLD	1	192	0	576
HLD	3	0	2	576
HLD	4	192	4	576
HLD	6	0	6	576
HLD	7	192	0	576
BRK	9	0	7
TAP	9	288	0
TAP	9	288	1
TAP	10	192	6
TAP	10	192	7
TAP	11	96	4
TAP	11	96	5
TAP	11	192	3
TAP	11	192	4
TAP	11	288	4
TAP	11	288	5
TAP	12	192	2
TAP	12	192	3
TAP	12	288	0
TAP	12	288	1
HLD	13	192	7	192
TAP	14	0	0
TAP	14	96	7
TAP	14	192	0
TAP	14	288	7
TAP	15	96	7
TAP	15	288	5
TAP	16	0	4
TAP	16	0	5
TAP	16	144	3
TAP	16	288	3
TAP	17	96	1
TAP	17	192	0
TAP	17	192	1
TAP	17	336	2
TAP	18	96	3
TAP	18	288	4
TAP	19	0	3
TAP	19	0	5
TAP	19	144	5
TAP	19	288	4
TAP	20	96	3
TAP	20	192	2
TAP	20	192	4
TAP	20	288	2
TAP	21	96	1
TAP	21	288	0
TAP	22	0	1
TAP	22	0	7
TAP	22	144	6
TAP	22	288	7
TAP	23	96	0
TAP	23	192	1
TAP	23	192	7
TAP	23	336	0
TAP	24	96	2
HLD	24	288	3	288
HLD	25	0	5	192
HLD	26	0	5	144
HLD	26	144	4	144
HLD	26	288	3	144
TAP	27	48	2
HLD	27	144	3	144
HLD	27	288	4	144
HLD	28	48	5	96
TAP	28	144	6
HLD	28	240	5	144
HLD	29	0	4	144
HLD	29	144	3	144
TAP	29	288	2
HLD	30	0	2	144
HLD	30	144	3	144
HLD	30	288	4	96
TAP	31	0	5
HLD	31	96	5	144
HLD	31	240	3	144
HLD	32	0	2	144
TAP	32	144	1
HLD	32	240	2	144
HLD	33	0	4	144
HLD	33	144	5	96
TAP	33	240	6
HLD	33	336	5	144
HLD	34	96	3	144
HLD	34	240	1	144
TAP	35	0	0
HLD	35	96	1	144
HLD	35	240	4	144
HLD	36	0	6	96
TAP	36	96	0
HLD	36	192	0	528
STR	37	336	6
SUL	37	336	6	96	528	3
TAP	40	240	1
TAP	40	288	6
TAP	40	336	0
TAP	41	0	7
TAP	41	48	1
TAP	41	96	6
TAP	41	192	0
TAP	41	240	0
TAP	41	336	6
TAP	42	0	6
TAP	42	96	3
TAP	42	144	4
TAP	42	192	2
TAP	42	240	5
TAP	42	288	3
TAP	42	336	4
TAP	43	288	2
TAP	43	336	3
TAP	44	0	2
TAP	44	48	3
TAP	44	96	1
TAP	44	192	5
TAP	44	240	4
TAP	44	288	5
TAP	44	336	4
TAP	45	0	6
TAP	45	96	2
TAP	45	144	3
TAP	45	192	1
TAP	45	240	4
TAP	45	288	0
TAP	46	0	5
TAP	46	48	4
TAP	46	96	6
TAP	46	144	3
TAP	46	192	7
TAP	46	288	0
TAP	46	336	7
TAP	47	0	0
TAP	47	48	7
TAP	47	96	0
TAP	47	144	7
TAP	47	192	1
TAP	47	240	6
TAP	47	288	1
TAP	47	336	6
TAP	48	0	1
TAP	48	48	6
TAP	48	96	0
TAP	49	0	0
TAP	49	48	7
TAP	49	96	1
TAP	49	144	6
TAP	49	192	2
TAP	49	240	5
TAP	49	288	3
TAP	49	336	4
STR	50	0	3
SCL	50	0	3	96	384	4
HLD	52	0	1	144
TAP	52	0	3
TAP	52	144	4
TAP	52	288	2
TAP	53	0	1
TAP	53	96	0
HLD	53	96	7	144
TAP	53	240	1
TAP	54	0	7
TAP	54	96	6
TAP	54	192	4
HLD	54	192	6	144
TAP	54	336	3
TAP	55	96	5
TAP	55	192	6
HLD	55	288	0	144
TAP	55	288	7
TAP	56	48	6
TAP	56	192	5
TAP	56	288	4
HLD	57	0	2	144
TAP	57	0	4
TAP	57	144	6
TAP	57	288	0
TAP	58	0	7
TAP	58	96	3
HLD	58	96	5	144
TAP	58	240	1
TAP	59	0	7
TAP	59	96	0
TAP	59	192	4
TAP	59	240	3
TAP	60	48	3
TAP	60	96	4
TAP	60	192	4
TAP	60	240	3
TAP	61	0	2
TAP	61	48	3
BRK	61	144	1
TAP	61	144	4
TAP	61	288	5
TAP	61	336	4
TAP	62	48	3
BRK	62	48	6
TAP	62	192	2
HLD	62	192	4	144
TAP	62	336	5
TAP	63	96	6
TAP	63	192	7
HLD	63	288	0	144
TAP	63	288	6
TAP	64	48	1
TAP	64	192	2
TAP	64	288	3
HLD	65	0	3	144
TAP	65	0	5
TAP	65	144	2
TAP	65	288	1
TAP	66	0	0
TAP	66	96	1
HLD	66	96	7	144
TAP	66	240	6
TAP	67	0	5
TAP	67	96	4
HLD	67	192	2	144
TAP	67	192	4
TAP	67	336	1
TAP	68	96	0
TAP	68	192	7
TAP	68	288	3
HLD	68	288	5	144
TAP	69	48	6
TAP	69	192	7
TAP	69	288	0
TAP	70	0	2
TAP	70	48	3
TAP	70	144	1
TAP	70	144	4
TAP	70	288	7
TAP	71	0	0
HLD	71	96	1	480
HLD	71	96	6	480
TAP	73	0	5
TAP	73	48	4
TAP	73	144	3
TAP	73	144	6
TAP	73	288	6
TAP	74	0	0
TAP	74	96	7
HLD	74	192	1	288
HLD	74	192	6	288
TAP	75	336	3
TAP	75	336	4
TAP	76	0	3
TAP	76	0	4
TAP	76	96	3
TAP	76	96	4
TAP	76	192	2
TAP	76	192	5
TAP	76	240	2
TAP	76	240	5
TAP	76	336	1
TAP	76	336	6
HLD	77	48	1	432
HLD	77	48	6	432
TAP	78	336	0
TAP	78	336	1
TAP	79	0	0
TAP	79	0	1
TAP	79	96	0
TAP	79	96	1
TAP	79	192	6
TAP	79	192	7
TAP	79	240	6
TAP	79	240	7
TAP	79	336	1
TAP	80	48	7
TAP	80	144	0
HLD	80	192	1	192
HLD	80	192	6	192
STR	81	192	1
SV_	81	192	1	96	288	3
STR	82	288	6
SV_	82	288	6	96	288	4
STR	84	0	0
SUL	84	0	0	96	288	2
STR	85	96	7
SUR	85	96	7	96	288	5
STR	86	192	1
SCL	86	192	1	96	1056	2
TAP	91	192	1
TAP	91	240	1
TAP	91	336	3
TAP	92	0	3
TAP	92	96	4
TAP	92	144	4
TAP	92	240	4
TAP	92	240	5
TAP	92	336	6
TAP	93	0	6
TAP	93	96	0
TAP	93	144	0
TAP	93	240	5
TAP	93	288	4
TAP	93	336	5
TAP	94	48	6
TAP	94	96	6
TAP	94	192	4
TAP	94	240	4
TAP	94	336	3
TAP	95	0	3
TAP	95	96	2
TAP	95	96	3
TAP	95	192	1
TAP	95	240	1
TAP	95	336	7
TAP	96	0	7
TAP	96	96	2
TAP	96	144	3
TAP	96	192	2
TAP	96	288	1
TAP	96	336	2
TAP	97	48	2
TAP	97	96	3
TAP	97	192	3
TAP	97	240	4
TAP	97	336	4
TAP	97	336	5
TAP	98	48	5
TAP	98	96	4
TAP	98	192	4
TAP	98	240	3
TAP	98	336	3
TAP	99	0	2
TAP	99	48	3
TAP	99	144	2
TAP	99	192	1
TAP	99	288	1
TAP	99	336	0
TAP	100	48	0
TAP	100	96	7
TAP	100	192	6
TAP	100	192	7
TAP	100	288	6
TAP	100	336	7
TAP	101	48	7
TAP	101	96	0
TAP	101	192	0
TAP	101	240	1
BRK	101	288	0
HLD	103	192	1	144
TAP	103	192	3
TAP	103	336	7
TAP	104	96	0
TAP	104	192	0
TAP	104	192	7
HLD	104	288	5	144
TAP	104	288	7
TAP	105	48	3
TAP	105	192	2
TAP	105	288	2
TAP	105	288	3
TAP	106	0	0
HLD	106	0	2	144
TAP	106	144	4
TAP	106	288	5
TAP	107	0	4
TAP	107	0	5
TAP	107	96	4
HLD	107	96	6	144
TAP	107	240	0
TAP	108	0	0
TAP	108	48	7
TAP	108	96	1
TAP	108	144	6
HLD	108	192	2	144
TAP	108	336	0
TAP	109	96	3
TAP	109	192	6
TAP	109	192	7
HLD	109	288	6	144
TAP	110	48	4
TAP	110	192	7
TAP	110	240	0
TAP	110	288	6
TAP	111	0	3
TAP	111	48	4
TAP	111	240	7
TAP	111	288	0
TAP	112	0	3
TAP	112	48	4
STR	112	192	1
SI_	112	192	1	96	48	5
TAP	112	240	1
BRK	112	336	7
STR	113	96	6
SI_	113	96	6	96	48	2
TAP	113	144	6
BRK	113	240	0
HLD	114	0	1	144
TAP	114	0	3
HLD	114	144	7	144
TAP	114	288	6
TAP	115	0	4
TAP	115	0	5
HLD	115	96	5	144
TAP	115	96	7
HLD	115	240	3	144
TAP	116	0	2
TAP	116	96	0
TAP	116	96	1
TAP	116	192	0
HLD	116	192	2	144
HLD	116	336	4	144
TAP	117	96	5
TAP	117	192	6
TAP	117	192	7
TAP	117	288	4
HLD	117	288	6	144
HLD	118	48	0	144
TAP	118	192	7
TAP	118	240	0
TAP	118	288	6
TAP	118	336	1
HLD	119	0	5	144
HLD	119	144	1	144
TAP	119	288	2
TAP	120	0	0
TAP	120	0	3
HLD	120	96	2	144
HLD	120	240	6	144
TAP	121	0	5
TAP	121	96	4
TAP	121	96	7
TAP	124	192	2
TAP	124	240	3
TAP	124	288	2
TAP	124	336	3
TAP	125	0	2
TAP	125	48	3
TAP	125	96	2
TAP	125	144	3
TAP	125	192	2
TAP	125	240	3
TAP	125	336	1
TAP	126	0	4
TAP	126	48	1
TAP	126	96	4
TAP	126	144	1
TAP	126	192	4
TAP	126	240	1
TAP	126	288	4
BRK	126	336	1
TAP	127	48	5
TAP	127	96	4
TAP	127	144	5
TAP	127	192	4
TAP	127	240	5
TAP	127	288	4
TAP	127	336	5
TAP	128	0	4
TAP	128	48	5
TAP	128	96	4
TAP	128	192	6
TAP	128	240	3
TAP	128	288	6
TAP	128	336	3
TAP	129	0	6
TAP	129	48	3
TAP	129	96	6
TAP	129	144	3
BRK	129	192	6
TAP	129	288	2
TAP	129	336	5
TAP	130	0	1
TAP	130	48	6
TAP	130	96	0
TAP	130	144	7
TAP	130	192	1
TAP	130	240	6
TAP	130	288	2
TAP	130	336	5
TAP	131	48	2
TAP	131	96	3
TAP	131	144	2
TAP	131	192	5
TAP	131	240	4
TAP	131	288	5
TAP	131	336	3
TAP	132	0	4
BRK	132	48	3
TAP	132	144	6
TAP	132	192	1
TAP	132	240	5
TAP	132	288	2
TAP	132	336	4
TAP	133	0	3
TAP	133	48	5
TAP	133	96	2
TAP	133	144	6
TAP	133	192	1
TAP	133	288	6
TAP	133	336	7
TAP	134	0	6
TAP	134	48	1
TAP	134	96	0
TAP	134	144	1
TAP	134	192	7
TAP	134	240	0
BRK	134	288	7

T_REC_TAP	403
T_REC_BRK	10
T_REC_XTP	0
T_REC_HLD	71
T_REC_XHO	0
T_REC_STR	9
T_REC_BST	0
T_REC_XST	0
T_REC_TTP	0
T_REC_THO	0
T_REC_SLD	9
T_REC_ALL	502
T_NUM_TAP	412
T_NUM_BRK	10
T_NUM_HLD	71
T_NUM_SLD	9
T_NUM_ALL	502
T_JUDGE_TAP	422
T_JUDGE_HLD	177
T_JUDGE_SLD	9
T_JUDGE_ALL	608
TTM_EACHPAIRS	65
TTM_SCR_TAP	206000
TTM_SCR_BRK	26000
TTM_SCR_HLD	71000
TTM_SCR_SLD	13500
TTM_SCR_ALL	316500
TTM_SCR_S	306050
TTM_SCR_SS	315500
TTM_RAT_ACV	10031

