VERSION	0.00.00	1.03.00
FES_MODE	0
BPM_DEF	266.000	266.000	266.000	266.000
MET_DEF	4	4
RESOLUTION	384
CLK_DEF	288
COMPATIBLE_CODE	MA2

BPM	0	0	266.000
MET	0	0	4	3

STR	1	192	0
SI_	1	192	0	96	384	4
STR	3	0	7
SI_	3	0	7	96	384	3
STR	4	192	1
SI_	4	192	1	96	384	5
STR	6	0	6
SI_	6	0	6	96	384	2
STR	7	192	3
SI_	7	192	3	96	384	7
TAP	9	0	6
TAP	9	96	6
TAP	9	288	5
TAP	10	0	5
TAP	10	192	4
TAP	10	288	4
TAP	11	96	4
TAP	11	192	3
TAP	11	288	4
TAP	12	0	2
TAP	12	96	2
TAP	12	288	1
TAP	13	0	1
TAP	13	192	0
TAP	13	288	0
TAP	14	96	7
TAP	14	192	0
STR	14	288	7
SI_	14	288	7	96	336	3
STR	16	96	2
SI_	16	96	2	96	336	5
STR	18	0	6
SI_	18	0	6	96	336	1
HLD	20	288	3	480
HLD	22	0	4	480
HLD	23	96	2	576
HLD	24	288	5	480
HLD	26	0	0	480
HLD	27	96	7	480
HLD	28	192	1	576
HLD	30	0	6	480
HLD	31	96	0	576
HLD	32	288	6	480
HLD	34	0	2	480
HLD	35	96	4	480
TAP	36	192	3
STR	37	312	5
SCR	37	312	5	96	744	2
TAP	40	192	3
TAP	40	288	3
TAP	41	0	4
TAP	41	96	4
TAP	41	192	2
TAP	41	288	2
TAP	42	0	5
TAP	42	96	5
TAP	42	192	0
TAP	42	288	7
TAP	43	288	4
TAP	44	0	4
TAP	44	96	4
TAP	44	192	2
TAP	44	288	2
TAP	45	0	2
TAP	45	96	6
TAP	45	192	6
TAP	45	288	6
TAP	46	0	0
TAP	46	96	0
TAP	46	192	0
STR	46	288	7
SSR	46	288	7	96	576	3
TAP	49	0	2
TAP	49	96	5
TAP	49	192	1
TAP	49	288	6
TAP	50	0	0
TAP	50	96	7
BRK	50	192	0
TAP	52	0	2
TAP	52	144	2
TAP	52	144	3
TAP	52	288	1
TAP	53	0	1
TAP	53	96	5
TAP	53	240	4
TAP	53	240	5
TAP	54	0	6
TAP	54	96	6
TAP	54	192	1
TAP	54	336	0
TAP	54	336	1
TAP	55	96	7
TAP	55	192	7
TAP	55	288	6
TAP	56	48	6
TAP	56	48	7
TAP	56	192	0
TAP	56	288	0
TAP	57	0	5
TAP	57	144	4
TAP	57	144	5
TAP	57	288	6
TAP	58	0	6
TAP	58	96	2
TAP	58	240	2
TAP	58	240	3
TAP	59	0	1
TAP	59	96	1
TAP	59	192	7
TAP	59	240	7
TAP	60	96	0
TAP	60	192	0
TAP	60	192	7
TAP	61	0	1
TAP	61	48	1
TAP	61	144	0
TAP	61	144	7
TAP	61	288	6
TAP	61	336	6
TAP	62	48	0
TAP	62	48	7
TAP	62	192	2
TAP	62	336	1
TAP	62	336	3
TAP	63	96	0
TAP	63	192	0
TAP	63	288	5
TAP	64	48	4
TAP	64	48	6
TAP	64	192	7
TAP	64	288	7
TAP	65	0	1
TAP	65	144	0
TAP	65	144	1
TAP	65	288	7
TAP	66	0	7
TAP	66	96	6
TAP	66	240	6
TAP	66	240	7
TAP	67	0	0
TAP	67	96	0
TAP	67	192	5
TAP	67	336	4
TAP	67	336	5
TAP	68	96	6
TAP	68	192	6
TAP	68	288	2
TAP	69	48	2
TAP	69	48	3
TAP	69	192	1
TAP	69	288	1
TAP	70	0	7
TAP	70	48	7
TAP	70	144	0
TAP	70	192	0
TAP	70	288	1
TAP	70	288	6
TAP	71	0	1
TAP	71	0	6
TAP	71	96	1
TAP	71	96	6
TAP	73	0	3
TAP	73	48	3
TAP	73	144	4
TAP	73	192	4
TAP	73	288	2
TAP	73	288	5
TAP	74	0	2
TAP	74	0	5
TAP	74	96	1
TAP	74	96	6
TAP	74	192	1
TAP	74	192	6
TAP	75	336	4
TAP	76	0	4
TAP	76	96	3
TAP	76	192	2
TAP	76	192	5
TAP	76	336	1
TAP	76	336	6
TAP	77	48	1
TAP	77	48	6
TAP	78	336	3
TAP	79	0	3
TAP	79	96	4
TAP	79	192	2
TAP	79	192	5
TAP	79	336	1
TAP	79	336	6
TAP	80	48	1
TAP	80	48	6
TAP	80	144	0
TAP	80	144	7
TAP	80	192	0
TAP	80	192	7
HLD	81	192	2	576
HLD	83	0	5	576
HLD	84	192	0	384
HLD	85	192	7	384
STR	86	192	0
SCR	86	192	0	96	1440	7
TAP	91	192	2
BRK	91	192	5
TAP	91	336	4
TAP	92	96	3
TAP	92	240	4
TAP	92	240	5
TAP	93	0	3
TAP	93	144	4
TAP	93	288	2
TAP	93	288	3
TAP	94	48	1
TAP	94	192	7
TAP	94	336	0
TAP	95	96	6
TAP	95	96	7
TAP	95	240	7
TAP	96	0	0
TAP	96	144	0
TAP	96	144	1
TAP	96	288	2
TAP	97	48	3
TAP	97	192	2
TAP	97	336	1
TAP	97	336	4
TAP	98	96	5
TAP	98	240	4
TAP	99	0	3
TAP	99	0	6
TAP	99	144	5
TAP	99	288	4
TAP	100	48	5
TAP	100	192	3
TAP	100	192	4
TAP	100	336	2
TAP	101	96	5
BRK	101	240	0
BRK	101	240	7
TAP	103	192	2
TAP	103	336	1
TAP	103	336	3
TAP	104	96	2
TAP	104	192	2
TAP	104	288	5
TAP	105	48	4
TAP	105	48	6
TAP	105	192	5
TAP	105	288	5
TAP	106	0	0
TAP	106	144	1
TAP	106	144	7
TAP	106	288	0
TAP	107	0	0
TAP	107	96	7
TAP	107	240	0
TAP	107	240	6
TAP	108	0	7
TAP	108	96	7
TAP	108	192	6
TAP	108	336	3
TAP	108	336	5
TAP	109	96	4
TAP	109	192	4
TAP	109	288	1
TAP	110	48	2
TAP	110	48	4
TAP	110	192	3
TAP	110	288	3
TAP	111	0	4
TAP	111	48	4
TAP	111	288	3
TAP	112	0	3
TAP	112	0	4
TAP	112	192	6
TAP	112	240	6
TAP	112	336	0
TAP	112	336	7
TAP	113	96	1
TAP	113	144	1
TAP	113	240	0
TAP	113	240	7
TAP	114	0	2
TAP	114	144	1
TAP	114	144	3
TAP	114	288	0
TAP	115	0	0
TAP	115	96	5
TAP	115	240	4
TAP	115	240	6
TAP	116	0	7
TAP	116	96	7
TAP	116	192	1
TAP	116	336	0
TAP	116	336	1
TAP	117	96	7
TAP	117	192	7
TAP	117	288	6
TAP	118	48	6
TAP	118	48	7
TAP	118	192	0
TAP	118	288	0
TAP	119	0	5
TAP	119	144	6
TAP	119	144	7
TAP	119	288	0
TAP	120	0	7
TAP	120	96	2
TAP	120	240	0
TAP	120	240	1
TAP	121	0	7
TAP	121	96	0
TAP	124	192	2
TAP	124	192	3
TAP	124	336	4
TAP	124	336	5
TAP	125	96	6
TAP	125	192	6
TAP	125	288	4
TAP	125	288	5
TAP	126	48	2
TAP	126	48	3
TAP	126	192	1
TAP	126	288	1
TAP	127	0	0
TAP	127	0	1
TAP	127	144	6
TAP	127	144	7
TAP	127	288	5
TAP	128	0	5
TAP	128	96	6
TAP	128	96	7
TAP	128	240	0
TAP	128	240	1
TAP	129	0	2
TAP	129	96	2
TAP	129	192	5
TAP	129	288	3
TAP	129	288	4
TAP	130	48	2
TAP	130	48	5
TAP	130	192	6
TAP	130	288	6
TAP	131	0	0
TAP	131	0	7
TAP	131	144	1
TAP	131	144	6
TAP	131	288	2
TAP	132	0	2
TAP	132	96	1
TAP	132	96	3
TAP	132	240	2
TAP	132	240	4
TAP	133	0	5
TAP	133	96	5
TAP	133	192	4
TAP	133	192	6
TAP	133	336	3
TAP	133	336	5
TAP	134	96	2
TAP	134	192	2
BRK	134	288	3
BRK	134	288	4

T_REC_TAP	319
T_REC_BRK	6
T_REC_XTP	0
T_REC_HLD	16
T_REC_XHO	0
T_REC_STR	11
T_REC_BST	0
T_REC_XST	0
T_REC_TTP	0
T_REC_THO	0
T_REC_SLD	11
T_REC_ALL	363
T_NUM_TAP	330
T_NUM_BRK	6
T_NUM_HLD	16
T_NUM_SLD	11
T_NUM_ALL	363
T_JUDGE_TAP	336
T_JUDGE_HLD	83
T_JUDGE_SLD	11
T_JUDGE_ALL	430
TTM_EACHPAIRS	71
TTM_SCR_TAP	165000
TTM_SCR_BRK	15600
TTM_SCR_HLD	16000
TTM_SCR_SLD	16500
TTM_SCR_ALL	213100
TTM_SCR_S	206150
TTM_SCR_SS	212500
TTM_RAT_ACV	10028

