VERSION	0.00.00	1.03.00
FES_MODE	0
BPM_DEF	266.000	266.000	266.000	266.000
MET_DEF	4	4
RESOLUTION	384
CLK_DEF	288
COMPATIBLE_CODE	MA2

BPM	0	0	266.000
MET	0	0	4	3

TAP	9	0	2
TAP	10	192	2
TAP	12	0	3
TAP	13	192	3
TAP	14	288	4
TAP	15	0	4
TAP	15	96	4
TAP	16	192	5
TAP	16	288	5
TAP	18	0	6
TAP	18	96	6
TAP	18	192	6
TAP	19	192	7
TAP	20	288	0
TAP	21	192	0
TAP	21	288	0
TAP	22	0	0
TAP	23	192	7
TAP	23	288	7
TAP	24	288	6
TAP	26	0	5
TAP	26	96	5
TAP	26	192	5
TAP	27	144	3
TAP	27	144	4
TAP	28	288	2
TAP	29	0	2
TAP	29	96	2
TAP	30	0	3
TAP	30	0	4
TAP	31	96	5
TAP	31	192	5
TAP	31	288	5
TAP	32	240	3
TAP	32	240	4
TAP	34	0	2
TAP	34	96	2
TAP	34	192	2
TAP	35	96	3
TAP	35	96	4
TAP	36	192	1
TAP	36	288	1
TAP	37	96	0
TAP	37	192	0
TAP	38	96	7
TAP	38	192	7
TAP	39	0	6
TAP	39	96	6
TAP	40	0	6
TAP	40	96	6
TAP	40	288	7
TAP	41	0	7
TAP	41	288	0
TAP	42	0	0
TAP	42	192	1
TAP	42	288	1
TAP	43	192	1
TAP	43	288	1
TAP	44	96	0
TAP	44	192	0
TAP	45	96	7
TAP	45	192	7
TAP	46	0	6
TAP	46	96	6
STR	46	288	7
SI_	46	288	7	96	384	3
BRK	50	192	0
BRK	50	192	7
HLD	52	0	2	144
TAP	52	288	2
TAP	53	0	2
TAP	53	96	2
TAP	53	96	3
HLD	54	192	5	144
TAP	55	96	5
TAP	55	192	5
TAP	55	288	4
TAP	55	288	5
HLD	57	0	2	144
TAP	57	288	2
TAP	58	0	2
TAP	58	96	2
TAP	58	96	3
TAP	59	192	4
TAP	59	288	4
TAP	60	96	3
TAP	60	192	3
TAP	61	0	2
TAP	61	0	4
TAP	61	288	3
TAP	61	288	5
HLD	62	192	5	144
TAP	63	96	5
TAP	63	192	5
TAP	63	288	4
TAP	63	288	5
HLD	65	0	2	144
TAP	65	288	2
TAP	66	0	2
TAP	66	96	2
TAP	66	96	3
HLD	67	192	5	144
TAP	68	96	5
TAP	68	192	5
TAP	68	288	4
TAP	68	288	5
HLD	70	0	1	480
HLD	70	288	0	192
HLD	73	0	6	576
HLD	73	288	7	288
HLD	75	336	0	480
HLD	76	192	7	240
HLD	78	336	7	624
HLD	79	192	0	384
STR	81	192	1
SI_	81	192	1	96	384	4
STR	84	0	6
SI_	84	0	6	96	384	3
STR	86	192	3
SI_	86	192	3	96	384	0
STR	86	192	4
SI_	86	192	4	96	384	7
TAP	91	192	1
TAP	91	288	1
TAP	92	0	1
TAP	92	288	0
TAP	93	0	0
TAP	93	96	0
TAP	94	0	6
TAP	94	96	6
TAP	94	192	6
TAP	95	96	7
TAP	95	192	7
TAP	95	288	7
TAP	96	0	7
TAP	96	288	1
TAP	97	0	1
TAP	97	96	1
TAP	98	0	0
TAP	98	96	0
TAP	98	192	0
TAP	99	96	6
TAP	99	192	6
TAP	99	288	6
TAP	100	192	7
TAP	100	288	7
TAP	101	0	7
TAP	101	96	7
TAP	101	192	7
TAP	101	288	7
HLD	103	192	2	144
TAP	104	96	2
TAP	104	192	2
TAP	104	288	2
TAP	104	288	3
HLD	106	0	5	144
TAP	106	288	5
TAP	107	0	5
TAP	107	96	4
TAP	107	96	5
HLD	108	192	2	144
TAP	109	96	2
TAP	109	192	2
TAP	109	288	2
TAP	109	288	3
TAP	111	0	4
TAP	111	96	4
TAP	111	288	3
TAP	112	0	3
TAP	112	192	2
TAP	112	192	4
TAP	113	96	3
TAP	113	96	5
HLD	114	0	6	144
TAP	114	288	6
TAP	115	0	6
TAP	115	96	6
TAP	115	96	7
HLD	116	192	1	144
TAP	117	96	1
TAP	117	192	1
TAP	117	288	0
TAP	117	288	1
HLD	119	0	6	144
TAP	119	288	6
TAP	120	0	6
TAP	120	96	6
TAP	120	96	7
STR	121	192	0
SI_	121	192	0	96	384	4
TAP	124	192	1
TAP	124	288	1
TAP	125	0	1
TAP	125	96	1
TAP	125	288	0
TAP	126	0	0
TAP	126	96	0
TAP	126	192	0
TAP	127	0	6
TAP	127	96	6
TAP	127	192	6
TAP	127	288	6
TAP	128	96	7
TAP	128	192	7
TAP	128	288	7
TAP	129	0	7
TAP	129	96	7
TAP	129	288	1
TAP	130	0	1
TAP	130	96	1
TAP	130	192	1
TAP	131	0	0
TAP	131	96	0
TAP	131	192	0
TAP	131	288	0
TAP	132	96	6
TAP	132	192	6
TAP	132	288	6
TAP	133	0	6
TAP	133	192	7
TAP	133	288	7
TAP	134	0	7
TAP	134	96	7
TAP	134	192	7
TAP	134	288	7

T_REC_TAP	191
T_REC_BRK	2
T_REC_XTP	0
T_REC_HLD	20
T_REC_XHO	0
T_REC_STR	6
T_REC_BST	0
T_REC_XST	0
T_REC_TTP	0
T_REC_THO	0
T_REC_SLD	6
T_REC_ALL	225
T_NUM_TAP	197
T_NUM_BRK	2
T_NUM_HLD	20
T_NUM_SLD	6
T_NUM_ALL	225
T_JUDGE_TAP	199
T_JUDGE_HLD	59
T_JUDGE_SLD	6
T_JUDGE_ALL	264
TTM_EACHPAIRS	22
TTM_SCR_TAP	98500
TTM_SCR_BRK	5200
TTM_SCR_HLD	20000
TTM_SCR_SLD	9000
TTM_SCR_ALL	132700
TTM_SCR_S	128550
TTM_SCR_SS	132500
TTM_RAT_ACV	10015

