VERSION	0.00.00	1.03.00
FES_MODE	0
BPM_DEF	173.000	173.000	173.000	173.000
MET_DEF	4	4
RESOLUTION	384
CLK_DEF	384
COMPATIBLE_CODE	MA2

BPM	0	0	173.000
MET	0	0	4	4

TAP	1	0	3
TAP	1	0	4
TAP	1	96	0
TAP	1	96	7
TAP	1	192	3
TAP	1	240	4
TAP	1	288	2
TAP	1	288	5
TAP	2	0	0
TAP	2	0	6
TAP	2	48	6
TAP	2	96	3
TAP	2	144	3
TAP	2	192	5
TAP	2	216	4
TAP	2	240	3
TAP	2	264	2
TAP	3	0	0
TAP	3	0	7
TAP	3	96	1
TAP	3	96	6
TAP	3	144	1
TAP	3	144	6
TAP	3	192	2
TAP	3	192	5
TAP	3	240	2
TAP	3	240	5
STR	3	288	3
SCL	3	288	3	96	192	3
SCR	3	288	3	96	192	3
TAP	3	288	4
TAP	3	336	5
TAP	3	352	4
TAP	3	368	2
TAP	4	0	3
BRK	4	288	1
BRK	4	288	5
TAP	5	0	6
TAP	5	48	7
TAP	5	96	0
TAP	5	144	1
TAP	5	240	7
TAP	5	288	0
TAP	5	336	1
TAP	6	48	6
TAP	6	96	7
TAP	6	144	0
TAP	6	240	7
TAP	6	288	0
TAP	6	336	1
TAP	7	48	6
TAP	7	96	7
TAP	7	144	0
TAP	7	240	7
TAP	7	288	0
TAP	7	336	1
TAP	8	0	5
TAP	8	48	4
TAP	8	96	3
TAP	8	144	2
TAP	8	240	5
TAP	8	288	4
TAP	8	336	3
HLD	9	0	6	528
TAP	9	48	7
TAP	9	96	0
TAP	9	144	1
TAP	9	240	7
TAP	9	288	0
TAP	9	336	1
TAP	10	48	7
TAP	10	96	0
TAP	10	144	1
TAP	10	240	5
TAP	10	288	4
TAP	10	336	3
BRK	11	0	2
HLD	11	240	1	48
HLD	11	288	2	48
STR	11	336	3
SI_	11	336	3	96	48	7
TAP	12	48	6
HLD	12	144	5	48
TAP	12	192	7
TAP	12	204	0
TAP	12	216	1
TAP	12	228	2
TAP	12	240	3
TAP	12	252	4
TAP	12	264	5
TAP	12	276	6
TAP	12	288	7
TAP	12	300	0
TAP	12	312	1
TAP	12	324	2
BRK	12	336	3
BRK	12	336	4
TAP	13	0	2
TAP	13	0	5
TAP	13	48	6
TAP	13	96	6
TAP	13	120	4
TAP	13	144	5
TAP	13	192	3
TAP	13	216	4
HLD	13	264	2	72
TAP	13	336	3
TAP	14	0	2
TAP	14	48	1
TAP	14	96	1
TAP	14	120	3
TAP	14	144	2
TAP	14	192	4
TAP	14	216	3
HLD	14	264	5	72
TAP	14	336	4
TAP	15	0	5
TAP	15	48	6
TAP	15	96	6
TAP	15	120	4
TAP	15	144	5
TAP	15	192	3
TAP	15	216	4
TAP	15	264	4
TAP	15	288	3
HLD	15	336	2	96
HLD	16	48	0	96
HLD	16	144	7	96
HLD	16	240	5	96
TAP	16	336	2
TAP	17	0	2
TAP	17	48	1
TAP	17	96	1
TAP	17	120	3
TAP	17	144	2
TAP	17	192	4
TAP	17	216	3
HLD	17	264	5	72
TAP	17	336	4
TAP	18	0	5
TAP	18	48	6
TAP	18	96	6
TAP	18	120	4
TAP	18	144	5
TAP	18	192	3
TAP	18	216	4
HLD	18	264	2	72
TAP	18	336	3
TAP	19	0	2
TAP	19	48	1
TAP	19	96	1
TAP	19	120	3
TAP	19	144	2
TAP	19	192	4
TAP	19	216	3
HLD	19	264	5	72
TAP	19	336	4
TAP	20	0	3
STR	20	0	7
SCL	20	0	7	96	96	2
STR	20	192	0
SCR	20	192	0	96	96	5
STR	21	0	6
SI_	21	0	6	96	48	3
STR	21	144	1
SI_	21	144	1	96	48	4
BRK	21	288	7
TAP	22	0	3
TAP	22	0	6
TAP	22	48	5
TAP	22	72	4
TAP	22	120	3
TAP	22	144	4
TAP	22	192	6
TAP	22	216	4
TAP	22	264	2
TAP	22	288	4
TAP	22	336	1
TAP	23	0	1
TAP	23	0	4
TAP	23	48	2
TAP	23	72	3
TAP	23	120	4
TAP	23	144	3
TAP	23	192	1
TAP	23	216	3
TAP	23	264	5
TAP	23	288	3
TAP	23	336	3
HLD	23	336	5	96
HLD	24	48	7	96
HLD	24	144	0	96
HLD	24	240	2	96
TAP	24	336	5
TAP	25	0	3
TAP	25	0	6
TAP	25	48	5
TAP	25	72	4
TAP	25	120	3
TAP	25	144	4
TAP	25	192	6
TAP	25	216	4
TAP	25	264	2
TAP	25	288	4
TAP	25	336	1
TAP	26	0	1
TAP	26	0	4
TAP	26	48	2
TAP	26	72	3
TAP	26	120	4
TAP	26	144	3
TAP	26	192	1
TAP	26	216	3
TAP	26	264	5
TAP	26	288	3
TAP	26	336	6
TAP	27	0	3
TAP	27	0	6
TAP	27	48	5
TAP	27	72	4
TAP	27	120	3
TAP	27	144	4
TAP	27	192	6
TAP	27	216	4
TAP	27	264	2
STR	27	288	4
SCL	27	288	4	96	192	5
TAP	27	336	4
HLD	28	0	1	192
BRK	28	288	2
BRK	28	288	5
TAP	29	0	1
TAP	29	0	7
TAP	29	48	5
TAP	29	72	3
TAP	29	96	5
TAP	29	120	3
TAP	29	144	4
TAP	29	192	2
TAP	29	216	3
TAP	29	264	5
TAP	29	288	4
TAP	29	336	7
TAP	30	0	0
TAP	30	0	6
TAP	30	48	2
TAP	30	72	4
TAP	30	96	2
TAP	30	120	4
TAP	30	144	3
TAP	30	192	5
TAP	30	216	4
TAP	30	264	2
TAP	30	288	3
TAP	30	336	0
TAP	31	0	1
TAP	31	0	7
TAP	31	48	5
TAP	31	72	3
TAP	31	96	5
TAP	31	120	3
TAP	31	144	4
TAP	31	192	2
TAP	31	216	3
TAP	31	264	5
TAP	31	288	4
TAP	31	336	7
TAP	32	0	0
TAP	32	0	6
TAP	32	48	2
TAP	32	72	4
TAP	32	96	2
TAP	32	120	4
TAP	32	144	3
TAP	32	192	5
TAP	32	216	4
TAP	32	264	2
TAP	32	288	3
TAP	32	336	0
TAP	33	0	1
TAP	33	0	7
TAP	33	48	6
TAP	33	72	4
TAP	33	96	6
TAP	33	120	4
TAP	33	144	5
TAP	33	192	0
TAP	33	192	6
TAP	33	240	1
TAP	33	264	3
TAP	33	288	1
TAP	33	312	3
TAP	33	336	2
TAP	34	0	3
TAP	34	0	6
TAP	34	48	7
TAP	34	72	4
TAP	34	96	7
TAP	34	120	4
TAP	34	144	6
TAP	34	192	1
TAP	34	192	4
TAP	34	240	0
TAP	34	264	3
TAP	34	288	0
TAP	34	312	3
TAP	34	336	1
TAP	35	0	7
TAP	35	24	3
TAP	35	48	6
TAP	35	72	4
TAP	35	96	5
TAP	35	120	4
TAP	35	144	6
TAP	35	168	6
TAP	35	192	2
TAP	35	216	3
TAP	35	240	1
TAP	35	264	4
BRK	35	288	0
BST	35	288	5
SI_	35	288	5	96	24	7
BST	36	0	2
SI_	36	0	2	96	24	0
BST	36	72	4
SI_	36	72	4	96	24	6
BST	36	144	3
SI_	36	144	3	96	24	1
BRK	36	216	4
BRK	36	288	7
BRK	36	336	0
TAP	37	0	2
TAP	37	0	4
STR	37	48	6
SI_	37	48	6	96	48	3
TAP	37	72	7
TAP	37	96	5
TAP	37	120	7
TAP	37	144	6
TAP	37	192	1
TAP	37	216	1
TAP	37	264	7
TAP	37	288	0
TAP	37	336	6
TAP	37	360	4
TAP	38	0	5
STR	38	48	2
SI_	38	48	2	96	48	7
TAP	38	72	3
TAP	38	96	1
TAP	38	120	3
TAP	38	144	2
TAP	38	192	6
HLD	38	216	6	48
TAP	38	264	4
TAP	38	288	4
TAP	38	336	3
TAP	38	336	6
TAP	39	0	2
TAP	39	0	5
TAP	39	48	1
TAP	39	72	0
TAP	39	96	2
TAP	39	120	0
TAP	39	144	1
TAP	39	192	6
TAP	39	216	4
TAP	39	240	5
TAP	39	264	4
STR	39	288	7
SCL	39	288	7	96	48	4
TAP	39	336	0
STR	40	0	7
SCR	40	0	7	96	48	2
STR	40	72	7
SI_	40	72	7	96	48	3
TAP	40	144	7
TAP	40	192	0
TAP	40	216	0
TAP	40	264	1
TAP	40	264	4
TAP	40	312	5
TAP	40	336	4
BRK	41	0	2
BRK	41	0	6
STR	41	48	1
SI_	41	48	1	96	48	4
TAP	41	72	0
TAP	41	96	2
TAP	41	120	0
TAP	41	144	1
TAP	41	192	6
TAP	41	216	6
TAP	41	264	0
TAP	41	288	7
TAP	41	336	1
TAP	41	360	3
TAP	42	0	2
STR	42	48	5
SI_	42	48	5	96	48	0
TAP	42	72	4
TAP	42	96	6
TAP	42	120	4
TAP	42	144	5
TAP	42	192	1
HLD	42	216	1	48
TAP	42	264	3
TAP	42	288	3
TAP	42	336	1
TAP	42	336	4
TAP	43	0	2
TAP	43	0	5
TAP	43	48	6
TAP	43	72	7
TAP	43	96	5
TAP	43	120	7
TAP	43	144	6
TAP	43	192	1
TAP	43	216	3
TAP	43	240	2
TAP	43	264	3
STR	43	288	0
SCR	43	288	0	96	48	3
TAP	43	336	7
STR	44	0	0
SCL	44	0	0	96	48	5
STR	44	72	0
SI_	44	72	0	96	48	4
TAP	44	144	0
TAP	44	192	7
TAP	44	216	7
TAP	44	264	3
TAP	44	264	6
TAP	44	312	2
TAP	44	336	3
BRK	45	0	1
BRK	45	0	5
STR	45	48	6
SCL	45	48	6	96	48	3
TAP	45	72	7
TAP	45	96	5
TAP	45	120	7
TAP	45	144	6
TAP	45	192	1
TAP	45	216	1
TAP	45	264	7
TAP	45	288	0
TAP	45	336	6
TAP	45	360	4
TAP	46	0	5
STR	46	48	2
SCL	46	48	2	96	48	7
TAP	46	72	3
TAP	46	96	1
TAP	46	120	3
TAP	46	144	2
TAP	46	192	6
HLD	46	216	6	48
TAP	46	264	4
TAP	46	288	4
TAP	46	336	3
TAP	46	336	6
TAP	47	0	2
TAP	47	0	5
TAP	47	48	1
TAP	47	72	0
TAP	47	96	2
TAP	47	120	0
TAP	47	144	1
TAP	47	192	6
TAP	47	216	4
TAP	47	240	5
TAP	47	264	4
STR	47	288	7
SCL	47	288	7	96	48	4
TAP	47	336	0
STR	48	0	7
SCR	48	0	7	96	48	2
STR	48	72	7
SI_	48	72	7	96	48	3
TAP	48	144	7
TAP	48	192	0
TAP	48	216	0
TAP	48	264	1
TAP	48	264	4
TAP	48	312	5
TAP	48	336	4
BRK	49	0	2
BRK	49	0	6
TAP	49	48	1
TAP	49	72	0
STR	49	96	2
SCR	49	96	2	96	48	5
TAP	49	120	0
TAP	49	144	1
TAP	49	192	6
TAP	49	216	6
TAP	49	264	0
TAP	49	288	7
TAP	49	336	1
TAP	49	360	3
BRK	50	0	2
TAP	50	48	6
TAP	50	72	7
STR	50	96	5
SCL	50	96	5	96	48	2
TAP	50	120	7
TAP	50	144	6
TAP	50	192	1
TAP	50	216	1
TAP	50	264	7
TAP	50	288	0
TAP	50	336	6
TAP	50	360	4
BRK	51	0	5
STR	51	48	1
SI_	51	48	1	96	24	3
TAP	51	72	0
TAP	51	96	1
TAP	51	120	0
TAP	51	144	1
STR	51	192	5
SI_	51	192	5	96	24	7
TAP	51	216	4
TAP	51	240	5
TAP	51	264	4
TAP	51	288	5
TAP	51	336	0
BRK	52	0	2
BRK	52	0	6
TAP	52	192	2
TAP	52	192	4
TAP	52	240	3
TAP	52	240	5
TAP	52	288	1
TAP	52	288	4
TAP	52	336	3
TAP	52	336	6
HLD	53	0	0	48
HLD	53	0	4	48
HLD	53	72	3	48
HLD	53	72	5	48
HLD	53	144	1	48
HLD	53	144	3	48
HLD	53	216	4	48
HLD	53	216	6	48
TAP	53	288	0
TAP	53	288	6
TAP	53	336	1
TAP	53	336	7
TAP	54	0	2
TAP	54	48	3
TAP	54	96	5
TAP	54	120	4
TAP	54	144	5
STR	54	192	7
SCL	54	192	7	96	48	4
TAP	54	208	0
TAP	54	224	1
TAP	54	240	2
TAP	54	256	3
TAP	54	272	4
TAP	54	288	7
HLD	55	0	1	48
HLD	55	0	3	48
HLD	55	72	2	48
HLD	55	72	7	48
HLD	55	144	0	48
HLD	55	144	5	48
HLD	55	216	1	48
HLD	55	216	3	48
TAP	55	288	2
TAP	55	288	4
TAP	55	336	3
TAP	55	336	5
TAP	56	0	6
TAP	56	48	7
TAP	56	96	1
TAP	56	120	0
TAP	56	144	1
TAP	56	192	4
HLD	56	216	3	48
TAP	56	264	5
TAP	56	336	4
TAP	56	336	6
HLD	57	0	3	48
HLD	57	0	7	48
HLD	57	72	2	48
HLD	57	72	4	48
HLD	57	144	4	48
HLD	57	144	6	48
HLD	57	216	1	48
HLD	57	216	3	48
TAP	57	288	1
TAP	57	288	7
TAP	57	336	0
TAP	57	336	6
TAP	58	0	5
TAP	58	48	4
TAP	58	96	2
TAP	58	120	3
TAP	58	144	2
STR	58	192	0
SCR	58	192	0	96	48	3
TAP	58	208	7
TAP	58	224	6
TAP	58	240	5
TAP	58	256	4
TAP	58	272	3
TAP	58	288	0
HLD	59	0	4	48
HLD	59	0	6	48
HLD	59	72	0	48
HLD	59	72	5	48
HLD	59	144	2	48
HLD	59	144	7	48
HLD	59	216	5	48
HLD	59	216	6	48
STR	59	288	3
SXL	59	288	3	96	192	6
SXR	59	288	3	96	192	0
TAP	59	288	5
TAP	59	336	2
TAP	59	336	4
TAP	60	0	3
BRK	60	288	2
BRK	60	288	4
TAP	61	0	1
TAP	61	0	6
TAP	61	12	2
TAP	61	24	3
TAP	61	36	4
TAP	61	48	5
TAP	61	60	6
TAP	61	72	7
TAP	61	84	0
TAP	61	96	1
TAP	61	108	2
TAP	61	120	3
TAP	61	132	4
TAP	61	144	5
TAP	61	156	6
TAP	61	168	7
TAP	61	180	0
TAP	61	192	1
TAP	61	204	2
TAP	61	216	3
TAP	61	228	4
TAP	61	240	5
TAP	61	252	6
TAP	61	264	7
TAP	61	276	0
TAP	61	288	1
TAP	61	300	2
TAP	61	312	3
TAP	61	324	4
TAP	61	336	5
TAP	61	348	6
TAP	61	360	7
TAP	61	372	0
TAP	62	0	1
TAP	62	12	2
TAP	62	24	3
TAP	62	36	4
TAP	62	48	5
TAP	62	60	6
TAP	62	72	7
TAP	62	84	0
TAP	62	96	1
TAP	62	108	2
TAP	62	120	3
TAP	62	132	4
TAP	62	144	5
TAP	62	156	6
TAP	62	168	7
TAP	62	180	0
TAP	62	192	1
TAP	62	204	2
TAP	62	216	3
TAP	62	228	4
TAP	62	240	5
TAP	62	252	6
TAP	62	264	7
TAP	62	276	0
TAP	62	288	1
TAP	62	300	2
TAP	62	312	3
TAP	62	324	4
TAP	62	336	5
TAP	62	348	6
TAP	62	360	7
TAP	62	372	0
BRK	63	0	1
BRK	63	0	5
BST	67	0	2
SI_	67	0	2	96	48	5
BST	67	0	6
SI_	67	0	6	96	48	1
STR	67	96	2
SLL	67	96	2	96	96	5
STR	67	96	6
SLL	67	96	6	96	96	1
BST	68	0	1
SI_	68	0	1	96	48	6
BST	68	0	5
SI_	68	0	5	96	48	2
STR	68	96	1
SLR	68	96	1	96	96	6
STR	68	96	5
SLR	68	96	5	96	96	2
BST	69	0	4
SI_	69	0	4	96	48	0
TAP	69	0	5
TAP	69	96	4
TAP	69	96	7
TAP	69	192	2
BST	69	192	3
SI_	69	192	3	96	48	7
TAP	69	288	0
TAP	69	288	3
TAP	70	0	3
TAP	70	0	5
TAP	70	72	1
TAP	70	72	4
TAP	70	144	0
TAP	70	144	7
TAP	70	192	6
TAP	70	204	5
TAP	70	216	4
TAP	70	228	3
TAP	70	240	2
TAP	70	252	1
TAP	70	264	0
TAP	70	276	7
BRK	70	288	2
BRK	70	288	6
TAP	71	0	0
TAP	71	0	7
STR	71	48	1
SI_	71	48	1	96	48	5
TAP	71	72	3
TAP	71	96	0
TAP	71	120	4
TAP	71	144	1
TAP	71	192	7
TAP	71	216	7
TAP	71	240	4
TAP	71	264	6
TAP	71	288	3
TAP	71	312	5
TAP	71	336	2
TAP	71	360	4
TAP	72	0	1
TAP	72	0	5
TAP	72	48	0
HLD	72	72	7	48
TAP	72	120	4
HLD	72	144	4	48
TAP	72	192	2
TAP	72	216	3
TAP	72	240	0
TAP	72	264	1
TAP	72	288	6
TAP	72	312	7
TAP	72	336	5
TAP	72	360	4
TAP	73	0	6
STR	73	48	2
SI_	73	48	2	96	24	0
TAP	73	72	3
TAP	73	96	1
TAP	73	120	3
TAP	73	144	2
STR	73	192	6
SI_	73	192	6	96	24	4
TAP	73	216	7
TAP	73	240	5
TAP	73	264	7
TAP	73	288	6
TAP	73	336	3
TAP	74	0	2
TAP	74	0	4
TAP	74	48	5
TAP	74	72	4
TAP	74	72	6
TAP	74	120	2
TAP	74	144	1
TAP	74	144	3
TAP	74	192	0
TAP	74	192	7
TAP	74	216	1
TAP	74	216	6
TAP	74	240	2
TAP	74	240	5
TAP	74	264	3
TAP	74	264	4
TAP	74	312	2
TAP	74	312	5
TAP	74	336	2
TAP	74	336	5
BRK	75	0	0
BRK	75	0	7
STR	75	48	6
SI_	75	48	6	96	48	2
TAP	75	72	4
TAP	75	96	7
TAP	75	120	3
TAP	75	144	6
TAP	75	192	0
TAP	75	216	0
TAP	75	240	3
TAP	75	264	1
TAP	75	288	4
TAP	75	312	2
TAP	75	336	5
TAP	75	360	3
TAP	76	0	2
TAP	76	0	6
TAP	76	48	7
HLD	76	72	0	48
TAP	76	120	3
HLD	76	144	3	48
TAP	76	192	5
TAP	76	216	4
TAP	76	240	7
TAP	76	264	6
TAP	76	288	1
TAP	76	312	0
TAP	76	336	2
TAP	76	360	3
TAP	77	0	1
STR	77	48	5
SI_	77	48	5	96	24	7
TAP	77	72	4
TAP	77	96	6
TAP	77	120	4
TAP	77	144	5
STR	77	192	1
SI_	77	192	1	96	24	3
TAP	77	216	0
TAP	77	240	2
TAP	77	264	0
TAP	77	288	1
TAP	77	336	4
BRK	78	0	1
BRK	78	0	6
TAP	78	48	2
TAP	78	72	3
TAP	78	120	5
TAP	78	144	4
TAP	78	192	6
TAP	78	192	7
TAP	78	216	5
TAP	78	240	3
TAP	78	240	4
TAP	78	264	2
TAP	78	288	0
TAP	78	288	1
TAP	78	312	7
TAP	78	336	4
TAP	78	336	6
HLD	79	0	3	48
HLD	79	0	7	48
HLD	79	72	2	48
HLD	79	72	4	48
HLD	79	144	4	48
HLD	79	144	6	48
HLD	79	216	1	48
HLD	79	216	3	48
TAP	79	288	1
TAP	79	288	7
TAP	79	336	0
TAP	79	336	6
TAP	80	0	5
TAP	80	48	4
TAP	80	96	2
TAP	80	120	3
TAP	80	144	2
STR	80	192	0
SCR	80	192	0	96	48	3
TAP	80	208	7
TAP	80	224	6
TAP	80	240	5
TAP	80	256	4
TAP	80	272	3
BRK	80	288	0
HLD	81	0	4	48
HLD	81	0	6	48
HLD	81	72	0	48
HLD	81	72	5	48
HLD	81	144	2	48
HLD	81	144	7	48
HLD	81	216	5	48
HLD	81	216	6	48
TAP	81	288	3
TAP	81	288	5
TAP	81	336	2
TAP	81	336	4
TAP	82	0	1
TAP	82	48	0
TAP	82	96	6
TAP	82	120	7
TAP	82	144	6
TAP	82	192	3
HLD	82	216	4	48
TAP	82	264	2
TAP	82	336	1
TAP	82	336	3
HLD	83	0	0	48
HLD	83	0	4	48
HLD	83	72	3	48
HLD	83	72	5	48
HLD	83	144	1	48
HLD	83	144	3	48
HLD	83	216	4	48
HLD	83	216	6	48
TAP	83	288	0
TAP	83	288	6
TAP	83	336	1
TAP	83	336	7
TAP	84	0	2
TAP	84	48	3
TAP	84	96	5
TAP	84	120	4
TAP	84	144	5
STR	84	192	7
SCL	84	192	7	96	48	4
TAP	84	208	0
TAP	84	224	1
TAP	84	240	2
TAP	84	256	3
TAP	84	272	4
BRK	84	288	7
HLD	85	0	1	48
HLD	85	0	3	48
HLD	85	72	2	48
HLD	85	72	7	48
HLD	85	144	0	48
HLD	85	144	5	48
HLD	85	216	1	48
HLD	85	216	2	48
TAP	85	288	2
TAP	85	288	4
TAP	85	336	3
TAP	85	336	5
TAP	86	0	4
TAP	86	0	6
TAP	86	48	7
TAP	86	96	1
TAP	86	120	3
TAP	86	144	2
TAP	86	192	3
TAP	86	192	5
TAP	86	216	3
TAP	86	216	5
STR	86	264	2
SI_	86	264	2	96	24	7
STR	86	264	6
SI_	86	264	6	96	24	3
TAP	86	336	2
TAP	86	336	6

T_REC_TAP	728
T_REC_BRK	34
T_REC_XTP	0
T_REC_HLD	91
T_REC_XHO	0
T_REC_STR	43
T_REC_BST	10
T_REC_XST	0
T_REC_TTP	0
T_REC_THO	0
T_REC_SLD	55
T_REC_ALL	961
T_NUM_TAP	771
T_NUM_BRK	44
T_NUM_HLD	91
T_NUM_SLD	55
T_NUM_ALL	961
T_JUDGE_TAP	815
T_JUDGE_HLD	117
T_JUDGE_SLD	55
T_JUDGE_ALL	987
TTM_EACHPAIRS	136
TTM_SCR_TAP	385500
TTM_SCR_BRK	114400
TTM_SCR_HLD	91000
TTM_SCR_SLD	82500
TTM_SCR_ALL	673400
TTM_SCR_S	648950
TTM_SCR_SS	669000
TTM_RAT_ACV	10065

