VERSION	0.00.00	1.03.00
FES_MODE	0
BPM_DEF	173.000	173.000	173.000	173.000
MET_DEF	4	4
RESOLUTION	384
CLK_DEF	384
COMPATIBLE_CODE	MA2

BPM	0	0	173.000
MET	0	0	4	4

HLD	1	0	1	288
TAP	1	96	0
TAP	1	192	6
TAP	1	240	7
TAP	1	288	0
HLD	2	0	1	48
HLD	2	48	2	96
TAP	2	144	3
TAP	2	192	4
TAP	2	216	3
TAP	2	240	4
TAP	2	264	3
STR	3	0	5
SCR	3	0	5	96	48	7
STR	3	96	1
SCR	3	96	1	96	48	3
TAP	3	192	0
TAP	3	240	7
TAP	3	288	6
TAP	3	336	2
TAP	3	360	3
STR	4	0	2
SCL	4	0	2	96	144	5
BRK	4	288	0
BRK	4	288	7
HLD	5	0	5	48
HLD	5	48	4	48
HLD	5	96	3	48
HLD	5	144	2	96
HLD	5	240	3	48
HLD	5	288	4	48
HLD	5	336	5	96
HLD	6	48	6	48
HLD	6	96	7	48
HLD	6	144	0	96
HLD	6	240	1	48
HLD	6	288	2	48
HLD	6	336	3	96
HLD	7	48	6	48
HLD	7	96	3	48
HLD	7	144	1	96
TAP	7	240	0
TAP	7	288	7
HLD	7	336	6	192
TAP	8	0	7
TAP	8	48	0
TAP	8	96	1
HLD	8	144	2	192
TAP	8	240	7
TAP	8	288	6
TAP	8	336	5
STR	9	0	1
SCR	9	0	1	96	96	4
TAP	9	48	0
TAP	9	96	7
STR	9	144	6
SCL	9	144	6	96	96	3
TAP	9	240	7
TAP	9	288	0
STR	9	336	1
SCL	9	336	1	96	96	6
TAP	10	48	2
TAP	10	96	3
STR	10	144	4
SCR	10	144	4	96	96	7
TAP	10	240	0
TAP	10	288	1
TAP	10	336	2
TAP	11	48	7
TAP	11	96	6
TAP	11	144	5
TAP	11	240	2
TAP	11	288	3
STR	11	336	4
SUL	11	336	4	96	96	7
STR	12	48	7
SUL	12	48	7	96	96	2
STR	12	144	2
SUL	12	144	2	96	96	6
STR	12	240	6
SI_	12	240	6	96	48	4
STR	13	0	1
SCL	13	0	1	96	48	6
STR	13	96	5
SUR	13	96	5	96	48	2
STR	13	192	6
SCR	13	192	6	96	48	1
STR	14	0	5
SCL	14	0	5	96	48	2
STR	14	96	1
SUR	14	96	1	96	48	6
STR	14	192	2
SCR	14	192	2	96	48	5
STR	15	0	1
SCR	15	0	1	96	48	4
STR	15	0	5
SCR	15	0	5	96	48	0
TAP	15	96	1
TAP	15	96	5
STR	15	192	0
SUL	15	192	0	96	48	3
STR	15	192	4
SUL	15	192	4	96	48	7
TAP	15	288	0
TAP	15	288	4
STR	16	48	0
SUL	16	48	0	96	96	2
STR	16	144	2
SUL	16	144	2	96	96	4
STR	16	240	4
SUL	16	240	4	96	96	6
STR	16	336	6
SCR	16	336	6	96	240	5
STR	18	0	0
SUR	18	0	0	96	48	4
STR	18	0	4
SUR	18	0	4	96	48	0
STR	18	192	0
SCL	18	192	0	96	48	5
STR	18	192	4
SCL	18	192	4	96	48	1
STR	19	0	3
SUL	19	0	3	96	48	7
STR	19	0	7
SUL	19	0	7	96	48	3
STR	19	192	3
SCR	19	192	3	96	48	6
STR	19	192	7
SCR	19	192	7	96	48	2
STR	20	0	1
SI_	20	0	1	96	48	5
HLD	20	0	7	288
TAP	20	96	1
STR	20	192	6
SI_	20	192	6	96	48	2
TAP	20	288	6
HLD	21	0	7	144
HLD	21	144	5	144
HLD	21	288	3	768
TAP	22	0	6
STR	22	96	6
SCR	22	96	6	96	48	1
STR	22	288	1
SUL	22	288	1	96	48	4
STR	23	96	4
SUR	23	96	4	96	48	2
TAP	23	288	2
HLD	23	336	2	96
HLD	24	48	6	96
HLD	24	144	5	96
HLD	24	240	2	96
HLD	24	336	1	1008
STR	25	96	5
SCL	25	96	5	96	48	2
STR	25	288	2
SUR	25	288	2	96	48	0
STR	26	96	0
SUR	26	96	0	96	48	5
STR	26	288	5
SUR	26	288	5	96	48	2
STR	27	96	2
SUR	27	96	2	96	192	5
STR	27	288	0
SUR	27	288	0	96	240	3
TAP	28	0	0
TAP	29	0	0
TAP	29	0	7
TAP	29	48	6
TAP	29	72	4
TAP	29	120	5
TAP	29	144	3
TAP	29	192	4
TAP	29	216	2
TAP	29	264	3
TAP	29	288	1
TAP	29	336	6
TAP	30	0	0
TAP	30	0	7
TAP	30	48	1
TAP	30	72	3
TAP	30	120	2
TAP	30	144	4
TAP	30	192	3
TAP	30	216	5
TAP	30	264	4
TAP	30	288	6
TAP	30	336	1
TAP	31	0	0
TAP	31	0	7
TAP	31	48	6
TAP	31	72	5
TAP	31	120	5
TAP	31	144	4
TAP	31	192	4
TAP	31	216	3
TAP	31	264	3
TAP	31	288	2
TAP	31	336	6
TAP	32	0	0
TAP	32	0	7
TAP	32	48	1
TAP	32	72	2
TAP	32	120	2
TAP	32	144	3
TAP	32	192	3
TAP	32	216	4
TAP	32	264	4
TAP	32	288	5
TAP	32	336	1
BRK	33	0	0
BRK	33	0	7
TAP	33	48	2
TAP	33	72	3
TAP	33	120	5
TAP	33	144	4
BRK	33	192	0
BRK	33	192	7
TAP	33	240	1
TAP	33	264	4
TAP	33	312	6
TAP	33	336	3
BRK	34	0	3
BRK	34	0	4
TAP	34	48	1
TAP	34	72	0
TAP	34	120	6
TAP	34	144	7
BRK	34	192	3
BRK	34	192	4
TAP	34	240	2
TAP	34	264	4
TAP	34	312	3
TAP	34	336	5
TAP	35	0	0
TAP	35	24	7
TAP	35	48	1
TAP	35	72	6
TAP	35	96	2
TAP	35	120	5
TAP	35	144	3
TAP	35	168	4
TAP	35	192	2
TAP	35	216	5
TAP	35	240	1
TAP	35	264	6
BRK	35	288	0
BRK	35	288	7
STR	36	0	3
SI_	36	0	3	96	24	0
STR	36	72	4
SI_	36	72	4	96	24	6
STR	36	144	3
SI_	36	144	3	96	24	1
STR	36	216	4
SI_	36	216	4	96	24	7
BRK	36	288	0
BRK	36	336	0
TAP	37	0	6
TAP	37	48	2
TAP	37	72	3
TAP	37	120	1
TAP	37	144	0
TAP	37	192	4
TAP	37	216	5
TAP	37	264	7
TAP	37	288	6
TAP	37	336	1
TAP	37	336	6
TAP	38	0	0
TAP	38	48	5
TAP	38	72	4
TAP	38	120	6
TAP	38	144	7
TAP	38	192	3
TAP	38	216	2
TAP	38	264	0
TAP	38	288	1
TAP	38	336	1
TAP	38	336	6
TAP	39	0	7
TAP	39	48	0
TAP	39	72	4
TAP	39	120	2
TAP	39	144	6
TAP	39	192	1
TAP	39	216	5
TAP	39	264	3
TAP	39	288	7
TAP	39	336	0
TAP	40	0	1
TAP	40	0	2
TAP	40	72	5
TAP	40	72	6
TAP	40	144	0
TAP	40	144	7
TAP	40	192	4
TAP	40	216	4
TAP	40	240	3
TAP	40	264	5
TAP	40	312	0
TAP	40	336	7
TAP	41	0	1
TAP	41	0	4
TAP	41	48	2
TAP	41	72	3
TAP	41	120	5
TAP	41	144	4
TAP	41	192	2
TAP	41	216	5
TAP	41	264	3
TAP	41	288	4
TAP	41	336	0
TAP	41	336	7
TAP	42	0	3
TAP	42	0	6
TAP	42	48	5
TAP	42	72	4
TAP	42	120	2
TAP	42	144	3
TAP	42	192	1
TAP	42	216	6
TAP	42	264	7
TAP	42	288	0
TAP	42	336	3
TAP	42	336	4
TAP	43	0	1
TAP	43	0	6
TAP	43	48	0
TAP	43	72	4
TAP	43	120	1
TAP	43	144	5
TAP	43	192	7
TAP	43	216	3
TAP	43	264	6
TAP	43	288	2
TAP	43	336	3
TAP	43	336	4
TAP	44	0	5
TAP	44	0	6
TAP	44	72	1
TAP	44	72	2
TAP	44	144	0
TAP	44	144	7
TAP	44	192	3
TAP	44	216	3
TAP	44	240	4
TAP	44	264	2
TAP	44	312	6
BRK	44	336	1
TAP	45	0	0
TAP	45	0	7
TAP	45	48	2
TAP	45	72	0
TAP	45	120	4
TAP	45	144	6
TAP	45	192	1
TAP	45	216	3
TAP	45	264	7
TAP	45	288	5
TAP	45	336	3
TAP	46	0	1
TAP	46	0	6
TAP	46	48	7
TAP	46	72	1
TAP	46	120	5
TAP	46	144	3
TAP	46	192	6
TAP	46	216	0
TAP	46	264	4
TAP	46	288	2
TAP	46	336	5
TAP	47	0	0
TAP	47	0	7
TAP	47	48	2
TAP	47	72	7
TAP	47	120	4
TAP	47	144	5
TAP	47	192	3
TAP	47	216	6
TAP	47	264	1
TAP	47	288	0
TAP	47	336	4
TAP	47	336	5
TAP	48	0	2
TAP	48	0	3
TAP	48	72	0
TAP	48	72	1
TAP	48	144	6
TAP	48	144	7
TAP	48	192	6
TAP	48	192	7
TAP	48	216	0
TAP	48	216	5
TAP	48	240	1
TAP	48	240	4
TAP	48	264	2
TAP	48	264	3
TAP	48	312	6
TAP	48	336	0
TAP	49	0	2
TAP	49	0	3
TAP	49	48	5
TAP	49	72	4
TAP	49	120	1
TAP	49	144	0
TAP	49	192	6
TAP	49	216	7
TAP	49	264	2
TAP	49	288	3
TAP	49	336	0
TAP	49	336	7
TAP	50	0	4
TAP	50	0	5
TAP	50	48	2
TAP	50	72	3
TAP	50	120	6
TAP	50	144	7
TAP	50	192	1
TAP	50	216	0
TAP	50	264	5
TAP	50	288	4
TAP	50	336	0
TAP	50	336	7
TAP	51	0	2
TAP	51	0	5
TAP	51	48	3
TAP	51	72	4
TAP	51	120	6
TAP	51	144	1
TAP	51	192	2
TAP	51	216	5
TAP	51	264	7
TAP	51	288	0
TAP	51	336	2
TAP	51	336	5
TAP	52	0	3
TAP	52	0	7
TAP	52	72	2
TAP	52	72	6
TAP	52	144	1
TAP	52	144	5
TAP	52	192	0
TAP	52	192	4
TAP	52	216	1
TAP	52	216	5
TAP	52	240	2
TAP	52	240	6
TAP	52	264	3
TAP	52	264	7
TAP	52	312	0
TAP	52	336	7
HLD	53	0	0	72
BRK	53	0	6
HLD	53	72	2	72
HLD	53	144	4	72
STR	53	216	6
SI_	53	216	6	96	24	2
TAP	53	288	4
TAP	53	336	4
STR	54	0	7
SV_	54	0	7	96	48	5
STR	54	48	0
SV_	54	48	0	96	48	2
TAP	54	192	4
TAP	54	216	3
TAP	54	240	4
TAP	54	264	3
TAP	54	312	7
TAP	54	336	0
BRK	55	0	1
HLD	55	0	7	72
HLD	55	72	5	72
HLD	55	144	3	72
STR	55	216	1
SI_	55	216	1	96	24	5
TAP	55	288	3
TAP	55	336	3
TAP	56	0	0
TAP	56	48	7
TAP	56	96	2
TAP	56	120	3
TAP	56	144	2
TAP	56	192	5
TAP	56	216	4
TAP	56	264	2
TAP	56	264	5
TAP	56	312	7
TAP	56	336	3
HLD	57	0	1	72
BRK	57	0	5
HLD	57	72	0	72
HLD	57	144	7	72
STR	57	216	6
SUR	57	216	6	96	48	4
TAP	57	288	1
TAP	57	336	1
STR	58	0	5
SV_	58	0	5	96	48	7
STR	58	48	2
SV_	58	48	2	96	48	0
TAP	58	192	4
TAP	58	216	3
TAP	58	240	6
TAP	58	264	1
TAP	58	312	7
TAP	58	336	0
BRK	59	0	1
HLD	59	0	5	72
HLD	59	72	4	72
HLD	59	144	3	72
STR	59	216	2
SUR	59	216	2	96	48	0
TAP	59	288	5
TAP	59	336	5
TAP	60	0	1
TAP	60	48	6
TAP	60	96	1
TAP	60	120	0
TAP	60	144	1
TAP	60	192	6
TAP	60	216	7
TAP	60	264	1
TAP	60	264	6
TAP	60	312	0
TAP	60	336	7
TAP	61	0	0
TAP	61	16	1
TAP	61	32	2
TAP	61	48	3
TAP	61	64	4
TAP	61	80	5
TAP	61	96	6
TAP	61	112	7
TAP	61	128	0
TAP	61	144	1
TAP	61	160	2
TAP	61	176	3
TAP	61	192	4
TAP	61	208	5
TAP	61	224	6
TAP	61	240	7
TAP	61	256	0
TAP	61	272	1
TAP	61	288	2
TAP	61	304	3
TAP	61	320	4
TAP	61	336	5
TAP	61	352	6
TAP	61	368	7
TAP	62	0	0
TAP	62	16	1
TAP	62	32	2
TAP	62	48	3
TAP	62	64	4
TAP	62	80	5
TAP	62	96	6
TAP	62	112	7
TAP	62	128	0
TAP	62	144	1
TAP	62	160	2
TAP	62	176	3
TAP	62	192	4
TAP	62	208	5
TAP	62	224	6
TAP	62	240	7
TAP	62	256	0
TAP	62	272	1
TAP	62	288	2
TAP	62	304	3
TAP	62	320	4
TAP	62	336	5
TAP	62	352	6
BRK	62	368	7
STR	67	0	1
SUR	67	0	1	96	48	5
STR	67	0	5
SUR	67	0	5	96	48	1
STR	67	96	1
SCL	67	96	1	96	48	6
STR	67	96	5
SCL	67	96	5	96	48	2
TAP	67	192	1
TAP	67	192	5
STR	68	0	2
SUL	68	0	2	96	48	6
STR	68	0	6
SUL	68	0	6	96	48	2
STR	68	96	2
SCR	68	96	2	96	48	5
STR	68	96	6
SCR	68	96	6	96	48	1
TAP	68	192	2
TAP	68	192	6
STR	69	0	0
SUR	69	0	0	96	48	4
STR	69	0	4
SUR	69	0	4	96	48	0
STR	69	192	3
SUL	69	192	3	96	48	7
STR	69	192	7
SUL	69	192	7	96	48	3
TAP	70	0	1
TAP	70	0	2
TAP	70	72	5
TAP	70	72	6
TAP	70	144	0
TAP	70	144	4
TAP	70	216	3
TAP	70	216	7
BRK	70	288	1
BRK	70	288	6
BRK	70	336	3
BRK	70	336	4
TAP	71	0	2
TAP	71	0	5
TAP	71	48	0
TAP	71	72	4
TAP	71	120	2
TAP	71	144	6
TAP	71	192	0
TAP	71	192	4
TAP	71	216	1
TAP	71	216	5
TAP	71	240	2
TAP	71	240	6
TAP	71	264	3
TAP	71	264	7
TAP	71	288	6
TAP	71	312	5
TAP	71	336	4
TAP	72	0	5
TAP	72	48	1
TAP	72	72	6
STR	72	120	7
SI_	72	120	7	96	48	3
STR	72	168	0
SI_	72	168	0	96	48	4
TAP	72	216	7
TAP	72	264	0
TAP	72	336	6
TAP	72	360	1
TAP	73	0	5
TAP	73	48	3
TAP	73	72	7
TAP	73	120	1
TAP	73	144	5
TAP	73	192	3
TAP	73	192	7
TAP	73	216	2
TAP	73	216	6
TAP	73	240	1
TAP	73	240	5
TAP	73	264	0
TAP	73	264	4
TAP	73	288	1
TAP	73	312	2
TAP	73	336	3
TAP	74	0	2
TAP	74	0	6
TAP	74	72	1
TAP	74	72	5
TAP	74	144	0
TAP	74	144	4
TAP	74	192	3
TAP	74	192	7
TAP	74	216	0
TAP	74	216	4
TAP	74	240	1
TAP	74	240	5
TAP	74	264	2
TAP	74	264	6
TAP	74	312	3
TAP	74	336	4
TAP	75	0	2
TAP	75	0	5
TAP	75	48	0
TAP	75	72	4
TAP	75	120	6
TAP	75	144	2
TAP	75	192	5
TAP	75	216	6
TAP	75	240	7
TAP	75	264	0
TAP	75	288	3
TAP	75	288	7
TAP	75	312	2
TAP	75	312	6
TAP	75	336	1
TAP	75	336	5
TAP	76	0	3
TAP	76	48	5
TAP	76	72	2
STR	76	120	0
SV_	76	120	0	96	48	3
STR	76	168	7
SV_	76	168	7	96	48	4
TAP	76	216	0
TAP	76	264	7
TAP	76	336	3
TAP	76	360	4
TAP	77	0	2
TAP	77	48	6
TAP	77	72	2
TAP	77	120	0
TAP	77	144	4
TAP	77	192	2
TAP	77	192	6
TAP	77	216	1
TAP	77	216	5
TAP	77	240	0
TAP	77	240	4
TAP	77	264	3
TAP	77	264	7
TAP	77	288	0
TAP	77	288	4
TAP	77	312	1
TAP	77	312	5
TAP	77	336	2
TAP	77	336	6
TAP	78	0	1
TAP	78	0	5
TAP	78	72	2
TAP	78	72	6
TAP	78	144	3
TAP	78	144	7
TAP	78	192	0
TAP	78	192	4
TAP	78	216	3
TAP	78	216	7
TAP	78	240	2
TAP	78	240	6
TAP	78	264	1
TAP	78	264	5
TAP	78	312	4
TAP	78	336	0
HLD	79	0	1	72
BRK	79	0	3
HLD	79	72	7	72
HLD	79	144	3	72
STR	79	216	5
SCR	79	216	5	96	48	0
TAP	79	288	1
TAP	79	336	1
STR	80	0	1
SCR	80	0	1	96	48	4
STR	80	48	0
SCL	80	48	0	96	48	5
TAP	80	192	3
TAP	80	216	5
TAP	80	240	1
TAP	80	264	7
TAP	80	312	0
TAP	80	336	7
BRK	81	0	4
HLD	81	0	6	72
HLD	81	72	0	72
HLD	81	144	4	72
STR	81	216	2
SCR	81	216	2	96	48	5
TAP	81	288	7
TAP	81	336	7
TAP	82	0	6
TAP	82	48	7
TAP	82	96	2
TAP	82	120	4
TAP	82	144	0
TAP	82	192	6
TAP	82	216	4
TAP	82	264	1
TAP	82	264	6
TAP	82	312	7
TAP	82	336	0
BRK	83	0	3
HLD	83	0	7	72
HLD	83	72	5	72
HLD	83	144	1	72
HLD	83	216	0	72
TAP	83	288	7
TAP	83	336	0
TAP	84	0	4
TAP	84	48	2
TAP	84	96	6
TAP	84	144	0
TAP	84	192	7
TAP	84	216	3
TAP	84	240	5
TAP	84	264	1
TAP	84	312	5
TAP	84	336	2
HLD	85	0	0	72
BRK	85	0	4
HLD	85	72	2	72
HLD	85	144	6	72
HLD	85	216	7	72
TAP	85	288	0
TAP	85	336	7
TAP	86	0	6
TAP	86	48	5
TAP	86	96	0
TAP	86	96	4
TAP	86	120	1
TAP	86	120	5
TAP	86	144	2
TAP	86	144	6
TAP	86	192	0
TAP	86	216	4
STR	86	264	2
SV_	86	264	2	96	48	0
STR	86	264	6
SV_	86	264	6	96	48	4
BRK	86	336	2
BRK	86	336	6

T_REC_TAP	570
T_REC_BRK	30
T_REC_XTP	0
T_REC_HLD	56
T_REC_XHO	0
T_REC_STR	78
T_REC_BST	0
T_REC_XST	0
T_REC_TTP	0
T_REC_THO	0
T_REC_SLD	78
T_REC_ALL	812
T_NUM_TAP	648
T_NUM_BRK	30
T_NUM_HLD	56
T_NUM_SLD	78
T_NUM_ALL	812
T_JUDGE_TAP	678
T_JUDGE_HLD	147
T_JUDGE_SLD	78
T_JUDGE_ALL	903
TTM_EACHPAIRS	121
TTM_SCR_TAP	324000
TTM_SCR_BRK	78000
TTM_SCR_HLD	56000
TTM_SCR_SLD	117000
TTM_SCR_ALL	575000
TTM_SCR_S	554850
TTM_SCR_SS	572000
TTM_RAT_ACV	10052

