VERSION	0.00.00	1.03.00
FES_MODE	0
BPM_DEF	173.000	173.000	173.000	173.000
MET_DEF	4	4
RESOLUTION	384
CLK_DEF	384
COMPATIBLE_CODE	MA2

BPM	0	0	173.000
MET	0	0	4	4

TAP	1	0	4
TAP	1	0	5
TAP	1	96	0
TAP	1	192	2
TAP	1	240	3
TAP	1	288	7
TAP	2	0	1
TAP	2	48	6
TAP	2	96	3
TAP	2	144	4
TAP	2	192	2
TAP	2	192	3
TAP	2	240	4
TAP	2	240	5
TAP	3	0	1
TAP	3	0	6
TAP	3	96	5
TAP	3	144	4
TAP	3	192	3
TAP	3	240	2
TAP	3	288	1
TAP	3	336	0
TAP	3	360	7
STR	4	0	0
SI_	4	0	0	96	192	4
BRK	4	288	0
TAP	5	0	7
TAP	5	48	6
TAP	5	96	5
TAP	5	144	4
TAP	5	240	0
TAP	5	288	1
TAP	5	336	2
TAP	6	48	6
TAP	6	96	5
TAP	6	144	4
TAP	6	240	1
TAP	6	288	2
TAP	6	336	3
TAP	7	48	5
TAP	7	96	4
TAP	7	144	3
TAP	7	240	2
TAP	7	288	3
TAP	7	336	4
TAP	8	0	5
TAP	8	48	2
TAP	8	96	6
TAP	8	144	1
TAP	8	240	7
TAP	8	288	6
TAP	8	336	5
TAP	9	0	0
TAP	9	48	1
TAP	9	96	2
TAP	9	144	3
TAP	9	240	6
TAP	9	288	5
TAP	9	336	4
TAP	10	48	1
TAP	10	96	2
TAP	10	144	3
TAP	10	240	5
TAP	10	288	4
TAP	10	336	3
TAP	11	0	2
TAP	11	48	5
TAP	11	96	1
TAP	11	144	6
TAP	11	240	0
TAP	11	288	7
HLD	11	336	1	96
HLD	12	48	3	96
HLD	12	144	5	96
HLD	12	240	7	96
HLD	12	336	3	1008
TAP	13	0	5
TAP	13	48	5
TAP	13	120	2
TAP	13	192	1
TAP	13	264	0
TAP	13	336	7
TAP	14	0	5
TAP	14	48	5
TAP	14	120	2
TAP	14	192	1
TAP	14	264	0
TAP	14	336	7
TAP	15	0	5
TAP	15	48	5
TAP	15	120	2
TAP	15	192	7
TAP	15	288	0
HLD	15	336	6	96
HLD	16	48	4	96
HLD	16	144	2	96
HLD	16	240	0	96
HLD	16	336	4	1200
TAP	17	0	2
TAP	17	48	2
TAP	17	120	5
TAP	17	192	6
TAP	17	264	7
TAP	17	336	0
TAP	18	0	2
TAP	18	48	2
TAP	18	120	5
TAP	18	192	6
TAP	18	264	7
TAP	18	336	0
TAP	19	0	2
TAP	19	48	2
TAP	19	120	5
TAP	19	192	6
TAP	19	264	7
TAP	19	336	0
HLD	20	0	1	288
HLD	20	192	6	96
HLD	21	0	2	96
HLD	21	0	7	96
HLD	21	144	0	96
HLD	21	144	5	96
STR	21	288	3
SCL	21	288	3	96	576	4
STR	21	288	4
SCR	21	288	4	96	576	3
TAP	23	288	3
HLD	23	336	4	96
HLD	24	48	6	96
HLD	24	144	0	96
HLD	24	240	2	96
HLD	24	336	4	1200
TAP	25	0	3
TAP	25	48	3
TAP	25	144	5
TAP	25	192	5
TAP	25	288	0
TAP	26	0	2
TAP	26	48	2
TAP	26	144	6
TAP	26	192	6
TAP	26	288	0
TAP	27	0	1
TAP	27	48	1
TAP	27	144	7
TAP	27	192	7
TAP	27	288	0
HLD	28	0	0	384
TAP	28	192	4
TAP	28	240	5
TAP	28	288	6
TAP	28	336	7
TAP	29	0	6
TAP	29	48	2
TAP	29	144	4
TAP	29	192	2
TAP	29	240	3
TAP	29	288	2
TAP	29	336	3
TAP	30	0	1
TAP	30	48	5
TAP	30	144	3
TAP	30	192	5
TAP	30	240	4
TAP	30	288	5
TAP	30	336	4
TAP	31	0	6
TAP	31	48	2
TAP	31	144	0
TAP	31	192	1
TAP	31	240	3
TAP	31	288	1
TAP	31	336	3
TAP	32	0	1
TAP	32	48	5
TAP	32	144	7
TAP	32	192	6
TAP	32	240	4
TAP	32	288	6
TAP	32	336	4
TAP	33	0	2
TAP	33	48	3
TAP	33	144	7
TAP	33	192	5
TAP	33	240	4
TAP	33	336	0
TAP	34	0	1
TAP	34	48	3
TAP	34	144	7
TAP	34	192	6
TAP	34	240	4
TAP	34	336	0
TAP	35	0	3
TAP	35	48	3
TAP	35	96	6
TAP	35	144	4
TAP	35	192	4
TAP	35	240	1
BRK	35	288	0
BRK	35	288	7
HLD	36	0	2	72
TAP	36	72	7
HLD	36	144	5	72
TAP	36	216	0
TAP	36	288	1
TAP	36	336	6
TAP	37	0	0
TAP	37	48	1
TAP	37	48	7
TAP	37	144	4
TAP	37	144	5
TAP	37	192	3
TAP	37	240	6
TAP	37	288	3
TAP	37	336	7
TAP	38	0	2
TAP	38	48	1
TAP	38	48	3
TAP	38	144	6
TAP	38	144	7
TAP	38	192	5
TAP	38	240	0
TAP	38	288	5
TAP	38	336	1
TAP	39	0	4
TAP	39	48	3
TAP	39	48	5
TAP	39	144	0
TAP	39	144	7
TAP	39	192	6
TAP	39	240	3
TAP	39	288	4
TAP	39	336	1
TAP	40	0	5
STR	40	48	6
SI_	40	48	6	96	48	3
TAP	40	192	2
STR	40	240	1
SI_	40	240	1	96	48	4
TAP	41	0	7
TAP	41	48	0
TAP	41	48	6
TAP	41	144	2
TAP	41	144	3
TAP	41	192	4
TAP	41	240	1
TAP	41	288	4
TAP	41	336	0
TAP	42	0	5
TAP	42	48	4
TAP	42	48	6
TAP	42	144	0
TAP	42	144	1
TAP	42	192	2
TAP	42	240	7
TAP	42	288	2
TAP	42	336	6
TAP	43	0	3
TAP	43	48	2
TAP	43	48	4
TAP	43	144	0
TAP	43	144	7
TAP	43	192	1
TAP	43	240	4
TAP	43	288	3
TAP	43	336	6
TAP	44	0	1
STR	44	48	0
SI_	44	48	0	96	48	5
TAP	44	192	6
STR	44	240	7
SI_	44	240	7	96	48	2
TAP	45	0	1
TAP	45	48	2
TAP	45	48	3
TAP	45	144	6
TAP	45	144	7
TAP	45	192	5
TAP	45	240	0
TAP	45	288	5
TAP	45	336	1
TAP	46	0	6
TAP	46	48	4
TAP	46	48	5
TAP	46	144	0
TAP	46	144	1
TAP	46	192	2
TAP	46	240	7
TAP	46	288	2
TAP	46	336	6
TAP	47	0	1
TAP	47	48	0
TAP	47	48	7
TAP	47	144	1
TAP	47	144	6
TAP	47	192	2
TAP	47	240	3
TAP	47	288	4
TAP	47	336	5
TAP	48	0	6
STR	48	48	7
SI_	48	48	7	96	48	3
TAP	48	192	1
STR	48	240	0
SI_	48	240	0	96	48	4
TAP	49	0	6
TAP	49	48	4
TAP	49	48	5
TAP	49	144	0
TAP	49	144	1
TAP	49	192	2
TAP	49	240	7
TAP	49	288	2
TAP	49	336	6
TAP	50	0	1
TAP	50	48	2
TAP	50	48	3
TAP	50	144	6
TAP	50	144	7
TAP	50	192	5
TAP	50	240	0
TAP	50	288	5
TAP	50	336	1
TAP	51	0	6
TAP	51	48	0
TAP	51	48	7
TAP	51	144	1
TAP	51	144	6
TAP	51	192	5
TAP	51	240	6
TAP	51	288	7
TAP	51	336	0
TAP	52	0	1
STR	52	48	2
SI_	52	48	2	96	48	7
TAP	52	192	6
STR	52	240	5
SI_	52	240	5	96	48	0
TAP	53	0	2
TAP	53	72	1
TAP	53	72	3
TAP	53	144	5
TAP	53	216	4
TAP	53	216	6
TAP	53	288	0
TAP	53	288	7
TAP	53	336	0
TAP	53	336	7
TAP	54	0	1
TAP	54	48	7
TAP	54	96	3
TAP	54	144	5
HLD	54	192	0	96
TAP	54	288	7
TAP	55	0	6
TAP	55	72	5
TAP	55	72	7
TAP	55	144	1
TAP	55	216	0
TAP	55	216	2
TAP	55	288	3
TAP	55	288	4
TAP	55	336	3
TAP	55	336	4
TAP	56	0	5
TAP	56	48	4
TAP	56	96	3
TAP	56	144	2
TAP	56	192	1
TAP	56	192	5
TAP	56	264	2
TAP	56	264	7
TAP	56	336	0
TAP	56	336	6
TAP	57	0	5
TAP	57	72	4
TAP	57	72	6
TAP	57	144	2
TAP	57	216	1
TAP	57	216	3
TAP	57	288	0
TAP	57	288	7
TAP	57	336	0
TAP	57	336	7
TAP	58	0	6
TAP	58	48	0
TAP	58	96	4
TAP	58	144	2
HLD	58	192	7	96
TAP	58	288	0
TAP	59	0	1
TAP	59	72	0
TAP	59	72	2
TAP	59	144	6
TAP	59	216	5
TAP	59	216	7
TAP	59	288	3
TAP	59	288	4
TAP	59	336	3
TAP	59	336	4
TAP	60	0	2
TAP	60	48	3
TAP	60	96	4
TAP	60	144	5
TAP	60	192	2
TAP	60	192	6
TAP	60	264	0
TAP	60	264	5
TAP	60	336	1
TAP	60	336	7
STR	61	0	0
SCR	61	0	0	96	576	7
HLD	61	0	4	768
BRK	63	0	0
STR	67	0	1
SV_	67	0	1	96	192	4
STR	67	0	7
SV_	67	0	7	96	192	4
STR	68	0	0
SSL	68	0	0	96	192	4
STR	69	0	0
SI_	69	0	0	96	48	4
STR	69	0	7
SI_	69	0	7	96	48	1
STR	69	192	0
SV_	69	192	0	96	48	3
STR	69	192	7
SI_	69	192	7	96	48	4
HLD	70	0	2	72
TAP	70	72	7
HLD	70	144	5	72
TAP	70	216	0
TAP	70	288	2
TAP	70	336	6
TAP	71	0	0
TAP	71	48	2
TAP	71	72	3
TAP	71	120	3
TAP	71	144	2
TAP	71	192	4
TAP	71	240	2
TAP	71	288	6
TAP	71	336	0
TAP	72	0	7
TAP	72	48	5
TAP	72	72	4
TAP	72	120	4
TAP	72	144	5
TAP	72	192	3
TAP	72	240	5
TAP	72	288	1
TAP	72	336	7
TAP	73	0	0
TAP	73	48	6
TAP	73	72	7
TAP	73	120	1
TAP	73	144	0
TAP	73	192	2
TAP	73	240	5
TAP	73	288	3
TAP	73	336	4
HLD	74	0	2	72
TAP	74	72	3
TAP	74	144	1
TAP	74	144	4
HLD	74	192	5	72
TAP	74	264	4
TAP	74	336	3
TAP	74	336	6
TAP	75	0	7
TAP	75	48	5
TAP	75	72	4
TAP	75	120	4
TAP	75	144	6
TAP	75	192	3
TAP	75	240	5
TAP	75	288	1
TAP	75	336	7
TAP	76	0	0
TAP	76	48	2
TAP	76	72	3
TAP	76	120	3
TAP	76	144	1
TAP	76	192	4
TAP	76	240	2
TAP	76	288	6
TAP	76	336	0
TAP	77	0	7
TAP	77	48	1
TAP	77	72	0
TAP	77	120	6
TAP	77	144	7
TAP	77	192	1
TAP	77	240	4
TAP	77	288	3
TAP	77	336	6
HLD	78	0	1	72
TAP	78	72	0
TAP	78	144	2
TAP	78	144	7
HLD	78	192	6	72
TAP	78	264	7
TAP	78	336	0
TAP	78	336	5
TAP	79	0	2
TAP	79	72	1
TAP	79	72	3
TAP	79	144	5
TAP	79	216	4
TAP	79	216	6
TAP	79	288	0
TAP	79	288	7
TAP	79	336	0
TAP	79	336	7
TAP	80	0	1
TAP	80	48	5
STR	80	96	3
SCL	80	96	3	96	48	0
STR	80	192	7
SCR	80	192	7	96	48	2
TAP	81	0	6
TAP	81	72	5
TAP	81	72	7
TAP	81	144	1
TAP	81	216	0
TAP	81	216	2
TAP	81	288	3
TAP	81	288	4
TAP	81	336	3
TAP	81	336	4
TAP	82	0	5
TAP	82	48	2
TAP	82	96	6
TAP	82	144	1
HLD	82	192	7	72
TAP	82	264	0
TAP	82	336	1
TAP	82	336	6
TAP	83	0	5
TAP	83	72	4
TAP	83	72	6
TAP	83	144	2
TAP	83	216	1
TAP	83	216	3
TAP	83	288	0
TAP	83	288	7
TAP	83	336	0
TAP	83	336	7
TAP	84	0	6
TAP	84	48	2
STR	84	96	4
SCR	84	96	4	96	48	7
STR	84	192	0
SCL	84	192	0	96	48	5
TAP	85	0	1
TAP	85	72	0
TAP	85	72	2
TAP	85	144	6
TAP	85	216	5
TAP	85	216	7
TAP	85	288	1
TAP	85	288	6
TAP	85	336	1
TAP	85	336	6
TAP	86	0	2
TAP	86	48	4
TAP	86	96	0
TAP	86	192	6
TAP	86	216	7
TAP	86	264	1
TAP	86	288	0
BRK	86	336	2
BRK	86	336	7

T_REC_TAP	487
T_REC_BRK	6
T_REC_XTP	0
T_REC_HLD	34
T_REC_XHO	0
T_REC_STR	23
T_REC_BST	0
T_REC_XST	0
T_REC_TTP	0
T_REC_THO	0
T_REC_SLD	23
T_REC_ALL	573
T_NUM_TAP	510
T_NUM_BRK	6
T_NUM_HLD	34
T_NUM_SLD	23
T_NUM_ALL	573
T_JUDGE_TAP	516
T_JUDGE_HLD	157
T_JUDGE_SLD	23
T_JUDGE_ALL	696
TTM_EACHPAIRS	80
TTM_SCR_TAP	255000
TTM_SCR_BRK	15600
TTM_SCR_HLD	34000
TTM_SCR_SLD	34500
TTM_SCR_ALL	339100
TTM_SCR_S	328350
TTM_SCR_SS	338500
TTM_RAT_ACV	10017

