VERSION	0.00.00	1.03.00
FES_MODE	0
BPM_DEF	173.000	173.000	173.000	173.000
MET_DEF	4	4
RESOLUTION	384
CLK_DEF	384
COMPATIBLE_CODE	MA2

BPM	0	0	173.000
MET	0	0	4	4

TAP	1	0	0
TAP	1	96	1
TAP	1	96	6
TAP	1	192	7
TAP	1	288	1
TAP	1	288	6
TAP	2	0	2
TAP	2	0	5
STR	2	96	0
SI_	2	96	0	96	72	3
STR	2	96	7
SI_	2	96	7	96	72	4
TAP	3	0	1
TAP	3	96	0
TAP	3	192	7
TAP	3	288	6
STR	4	0	0
SCR	4	0	0	96	96	3
STR	4	0	7
SCL	4	0	7	96	96	4
BRK	4	288	0
HLD	5	0	7	576
HLD	7	0	3	576
STR	9	0	6
SCR	9	0	6	96	480	5
HLD	11	0	6	192
TAP	11	288	6
TAP	12	0	7
TAP	12	96	0
TAP	12	192	1
TAP	12	288	2
HLD	13	0	2	960
TAP	15	288	3
TAP	16	0	4
TAP	16	96	2
TAP	16	192	5
STR	16	288	1
SCL	16	288	1	96	480	6
HLD	19	0	3	192
HLD	19	192	4	192
TAP	20	0	0
TAP	20	192	7
TAP	21	0	0
HLD	21	288	2	576
TAP	22	96	3
TAP	22	288	3
TAP	23	96	3
TAP	23	288	3
TAP	24	0	3
TAP	24	96	4
TAP	24	192	5
HLD	24	288	6	1152
TAP	25	96	5
TAP	25	288	5
TAP	26	96	5
TAP	26	288	5
TAP	27	96	5
TAP	27	288	5
STR	28	0	5
SI_	28	0	5	96	96	1
TAP	29	0	2
TAP	29	96	2
TAP	29	192	3
TAP	29	288	3
TAP	30	0	4
TAP	30	96	4
TAP	30	192	5
TAP	30	288	5
TAP	31	0	4
TAP	31	96	2
TAP	31	192	3
TAP	31	288	5
TAP	32	0	3
TAP	32	96	5
TAP	32	192	4
TAP	32	288	2
TAP	33	0	3
TAP	33	0	4
TAP	33	96	4
TAP	33	96	5
TAP	33	192	3
TAP	33	192	4
TAP	33	288	2
TAP	33	288	3
TAP	34	0	3
TAP	34	0	4
TAP	34	96	1
TAP	34	96	3
TAP	34	192	3
TAP	34	192	4
TAP	34	288	4
TAP	34	288	6
TAP	35	0	3
TAP	35	0	4
TAP	35	96	2
TAP	35	96	5
TAP	35	192	1
TAP	35	192	6
BRK	35	288	0
BRK	35	288	7
STR	36	0	1
SI_	36	0	1	96	48	5
STR	36	192	7
SI_	36	192	7	96	48	3
TAP	37	0	0
TAP	37	96	4
TAP	37	192	2
TAP	37	288	6
TAP	38	0	1
TAP	38	96	5
TAP	38	192	3
TAP	38	288	7
TAP	39	0	1
TAP	39	96	4
TAP	39	192	3
TAP	39	288	6
TAP	40	0	2
TAP	40	96	5
TAP	40	192	3
TAP	40	240	4
TAP	40	288	3
TAP	41	0	4
TAP	41	96	7
TAP	41	192	0
TAP	41	288	1
TAP	42	0	3
TAP	42	96	0
TAP	42	192	7
TAP	42	288	6
TAP	43	0	2
TAP	43	96	3
TAP	43	192	4
TAP	43	288	5
TAP	44	0	0
TAP	44	96	7
TAP	44	192	0
TAP	44	240	7
TAP	44	288	0
TAP	45	0	1
TAP	45	0	6
TAP	45	96	2
TAP	45	192	3
TAP	45	288	4
TAP	46	0	6
TAP	46	96	5
TAP	46	192	4
TAP	46	288	3
TAP	47	0	0
TAP	47	0	7
TAP	47	96	2
TAP	47	192	4
TAP	47	288	6
TAP	48	0	2
TAP	48	96	5
TAP	48	192	4
TAP	48	240	3
TAP	48	288	4
TAP	49	0	0
TAP	49	0	7
TAP	49	96	5
TAP	49	192	3
TAP	49	288	1
TAP	50	0	0
TAP	50	96	7
TAP	50	192	6
TAP	50	288	5
TAP	51	0	2
TAP	51	0	3
TAP	51	96	2
TAP	51	192	4
TAP	51	192	5
TAP	51	288	5
TAP	52	0	3
TAP	52	0	4
TAP	52	96	3
TAP	52	96	4
TAP	52	192	3
TAP	52	240	4
BRK	52	288	3
HLD	53	0	0	144
HLD	53	0	1	144
TAP	53	288	0
TAP	53	288	1
TAP	54	0	1
STR	54	96	0
SCL	54	96	0	96	96	6
HLD	55	0	6	144
HLD	55	0	7	144
TAP	55	288	6
TAP	55	288	7
TAP	56	0	6
STR	56	96	7
SCR	56	96	7	96	96	1
HLD	57	0	2	144
HLD	57	0	4	144
TAP	57	288	2
TAP	57	288	4
TAP	58	0	2
STR	58	96	4
SV_	58	96	4	96	96	6
HLD	59	0	3	144
HLD	59	0	5	144
TAP	59	288	3
TAP	59	288	5
TAP	60	0	5
STR	60	96	3
SV_	60	96	3	96	96	1
STR	61	0	0
SCR	61	0	0	96	672	7
TAP	67	0	0
TAP	67	0	4
TAP	68	0	1
TAP	68	0	5
TAP	69	0	2
TAP	69	0	6
TAP	69	192	3
TAP	69	192	7
TAP	70	0	3
TAP	70	0	7
TAP	70	96	2
TAP	70	96	6
TAP	70	192	1
TAP	70	192	5
BRK	70	288	0
BRK	70	288	4
TAP	71	0	2
TAP	71	96	3
TAP	71	192	2
TAP	71	288	2
TAP	71	288	3
TAP	72	0	5
TAP	72	96	4
TAP	72	192	5
TAP	72	288	4
TAP	72	288	5
TAP	73	0	1
TAP	73	96	0
TAP	73	192	1
TAP	73	288	0
TAP	73	288	1
TAP	74	0	6
TAP	74	96	7
TAP	74	192	6
TAP	74	288	6
TAP	74	288	7
TAP	75	0	2
TAP	75	96	4
TAP	75	192	2
TAP	75	288	1
TAP	75	288	3
TAP	76	0	5
TAP	76	96	3
TAP	76	192	5
TAP	76	288	4
TAP	76	288	6
TAP	77	0	0
TAP	77	0	1
TAP	77	192	6
TAP	77	192	7
TAP	78	0	0
TAP	78	0	1
TAP	78	96	6
TAP	78	96	7
TAP	78	192	4
TAP	78	192	5
TAP	78	288	2
TAP	78	288	3
HLD	79	0	2	144
HLD	79	0	3	144
TAP	79	288	2
TAP	79	288	3
TAP	80	0	1
STR	80	96	2
SI_	80	96	2	96	96	5
HLD	81	0	4	144
HLD	81	0	5	144
TAP	81	288	4
TAP	81	288	5
TAP	82	0	6
STR	82	96	5
SI_	82	96	5	96	96	2
HLD	83	0	4	144
HLD	83	0	5	144
TAP	83	288	4
TAP	83	288	5
TAP	84	0	2
STR	84	96	3
SI_	84	96	3	96	96	0
HLD	85	0	2	144
HLD	85	0	3	144
TAP	85	288	2
TAP	85	288	3
TAP	86	0	5
TAP	86	96	4
TAP	86	192	3
BRK	86	288	1
BRK	86	288	6

T_REC_TAP	231
T_REC_BRK	8
T_REC_XTP	0
T_REC_HLD	24
T_REC_XHO	0
T_REC_STR	17
T_REC_BST	0
T_REC_XST	0
T_REC_TTP	0
T_REC_THO	0
T_REC_SLD	17
T_REC_ALL	297
T_NUM_TAP	248
T_NUM_BRK	8
T_NUM_HLD	24
T_NUM_SLD	17
T_NUM_ALL	297
T_JUDGE_TAP	256
T_JUDGE_HLD	140
T_JUDGE_SLD	17
T_JUDGE_ALL	413
TTM_EACHPAIRS	61
TTM_SCR_TAP	124000
TTM_SCR_BRK	20800
TTM_SCR_HLD	24000
TTM_SCR_SLD	25500
TTM_SCR_ALL	194300
TTM_SCR_S	187700
TTM_SCR_SS	193500
TTM_RAT_ACV	10041

