VERSION	0.00.00	1.03.00
FES_MODE	0
BPM_DEF	173.000	173.000	173.000	173.000
MET_DEF	4	4
RESOLUTION	384
CLK_DEF	384
COMPATIBLE_CODE	MA2

BPM	0	0	173.000
MET	0	0	4	4

TAP	1	0	0
TAP	1	192	1
HLD	2	0	2	192
TAP	3	0	4
TAP	3	192	5
BRK	4	0	6
BRK	4	0	7
TAP	5	0	7
TAP	6	0	7
TAP	7	0	5
TAP	8	0	5
TAP	8	192	4
TAP	9	0	3
TAP	10	0	3
TAP	11	0	1
TAP	12	0	1
TAP	12	192	0
TAP	13	0	7
TAP	13	96	7
TAP	13	288	7
TAP	14	96	7
TAP	14	288	7
TAP	15	96	0
TAP	15	288	0
TAP	16	96	0
TAP	16	288	0
TAP	17	96	6
TAP	17	288	6
TAP	18	96	6
TAP	18	288	6
TAP	19	96	1
TAP	19	288	1
HLD	20	0	1	192
TAP	21	0	4
TAP	21	96	4
TAP	21	288	5
TAP	22	96	6
TAP	22	288	7
TAP	23	96	0
TAP	23	288	1
TAP	24	96	2
TAP	24	288	3
TAP	25	96	4
TAP	25	288	3
TAP	26	96	2
TAP	26	288	1
TAP	27	96	0
TAP	27	288	7
HLD	28	0	7	192
TAP	29	0	0
TAP	29	192	1
TAP	30	0	7
TAP	30	192	6
TAP	31	0	0
TAP	31	192	0
TAP	31	192	1
TAP	32	0	7
TAP	32	192	6
TAP	32	192	7
TAP	33	0	0
TAP	33	0	1
TAP	33	192	0
TAP	33	192	7
TAP	34	0	6
TAP	34	0	7
TAP	34	192	0
TAP	34	192	7
TAP	35	0	0
TAP	35	96	7
TAP	35	192	0
TAP	35	288	7
HLD	36	0	1	288
HLD	36	0	6	288
TAP	37	0	0
TAP	37	96	0
TAP	37	192	0
TAP	38	0	6
TAP	38	96	6
TAP	38	192	6
TAP	39	0	4
TAP	39	0	5
TAP	39	192	2
TAP	39	192	3
TAP	40	0	0
TAP	40	96	7
TAP	40	192	1
TAP	40	192	6
TAP	41	0	7
TAP	41	96	7
TAP	41	192	7
TAP	42	0	1
TAP	42	96	1
TAP	42	192	1
TAP	43	0	2
TAP	43	0	3
TAP	43	192	4
TAP	43	192	5
TAP	44	0	7
TAP	44	96	0
TAP	44	192	1
TAP	44	192	6
TAP	45	0	0
TAP	45	96	1
TAP	45	192	2
TAP	46	0	4
TAP	46	96	5
TAP	46	192	6
TAP	47	0	6
TAP	47	0	7
TAP	47	192	0
TAP	47	192	1
TAP	48	0	3
TAP	48	96	4
TAP	48	192	2
TAP	48	192	5
TAP	49	0	7
TAP	49	96	6
TAP	49	192	5
TAP	50	0	3
TAP	50	96	2
TAP	50	192	1
TAP	51	0	0
TAP	51	0	1
TAP	51	192	6
TAP	51	192	7
TAP	52	0	4
TAP	52	96	3
TAP	52	192	2
TAP	52	192	5
HLD	53	0	0	288
TAP	54	0	7
TAP	54	192	6
HLD	55	0	0	288
TAP	56	0	7
TAP	56	192	6
HLD	57	0	0	288
TAP	58	0	7
TAP	58	192	4
TAP	58	192	5
HLD	59	0	0	288
TAP	60	0	7
TAP	60	192	4
TAP	60	192	5
STR	61	0	0
SCR	61	0	0	96	576	3
STR	61	0	7
SCL	61	0	7	96	576	4
TAP	67	0	3
TAP	68	0	3
TAP	69	0	3
TAP	69	192	3
HLD	70	0	6	192
TAP	71	0	0
TAP	71	96	1
TAP	71	192	2
TAP	71	192	3
TAP	72	0	7
TAP	72	96	6
TAP	72	192	4
TAP	72	192	5
TAP	73	0	2
TAP	73	0	4
TAP	73	192	3
TAP	73	192	5
TAP	74	0	3
TAP	74	0	4
TAP	74	96	2
TAP	74	96	5
TAP	74	192	1
TAP	74	192	6
TAP	75	0	3
TAP	75	96	2
TAP	75	192	0
TAP	75	192	1
TAP	76	0	4
TAP	76	96	5
TAP	76	192	6
TAP	76	192	7
TAP	77	0	1
TAP	77	0	7
TAP	77	192	0
TAP	77	192	6
TAP	78	0	0
TAP	78	0	7
TAP	78	96	1
TAP	78	96	6
TAP	78	192	2
TAP	78	192	5
HLD	79	0	4	288
HLD	79	0	5	288
TAP	80	0	3
TAP	80	96	3
TAP	80	192	4
TAP	80	288	4
HLD	81	0	2	288
HLD	81	0	3	288
TAP	82	0	4
TAP	82	96	4
TAP	82	192	5
TAP	82	288	5
HLD	83	0	6	288
HLD	83	0	7	288
TAP	84	0	0
TAP	84	96	0
TAP	84	192	7
TAP	84	288	7
HLD	85	0	0	288
HLD	85	0	1	288
TAP	86	0	2
TAP	86	96	3
TAP	86	192	4
TAP	86	288	5

T_REC_TAP	188
T_REC_BRK	2
T_REC_XTP	0
T_REC_HLD	18
T_REC_XHO	0
T_REC_STR	2
T_REC_BST	0
T_REC_XST	0
T_REC_TTP	0
T_REC_THO	0
T_REC_SLD	2
T_REC_ALL	212
T_NUM_TAP	190
T_NUM_BRK	2
T_NUM_HLD	18
T_NUM_SLD	2
T_NUM_ALL	212
T_JUDGE_TAP	192
T_JUDGE_HLD	100
T_JUDGE_SLD	2
T_JUDGE_ALL	294
TTM_EACHPAIRS	41
TTM_SCR_TAP	95000
TTM_SCR_BRK	5200
TTM_SCR_HLD	18000
TTM_SCR_SLD	3000
TTM_SCR_ALL	121200
TTM_SCR_S	117400
TTM_SCR_SS	121000
TTM_RAT_ACV	10016

