VERSION	0.00.00	1.03.00
FES_MODE	0
BPM_DEF	222.000	222.000	222.000	222.000
MET_DEF	4	4
RESOLUTION	384
CLK_DEF	384
COMPATIBLE_CODE	MA2

BPM	0	0	222.000
MET	0	0	4	4

STR	2	0	0
SI_	2	0	0	96	96	4
STR	3	0	4
SCR	3	0	4	96	96	7
TAP	3	192	0
STR	4	0	7
SI_	4	0	7	96	96	3
STR	5	0	3
SCL	5	0	3	96	96	0
TAP	5	192	7
STR	6	0	0
SI_	6	0	0	96	96	4
STR	7	0	4
SCR	7	0	4	96	96	7
TAP	7	192	0
STR	8	0	7
SI_	8	0	7	96	96	3
STR	9	0	3
SCL	9	0	3	96	96	0
TAP	9	192	7
STR	10	0	0
SCR	10	0	0	96	96	3
STR	10	0	4
SUL	10	0	4	96	96	7
STR	11	0	3
SUR	11	0	3	96	96	0
STR	11	0	7
SCL	11	0	7	96	96	4
STR	12	0	0
SCR	12	0	0	96	96	3
STR	12	0	4
SUL	12	0	4	96	96	7
STR	13	0	3
SUR	13	0	3	96	96	0
STR	13	0	7
SCL	13	0	7	96	96	4
TAP	14	0	0
STR	14	0	4
SUL	14	0	4	96	96	7
TAP	14	96	1
TAP	14	192	2
TAP	14	288	3
STR	15	0	3
SUR	15	0	3	96	96	0
TAP	15	0	7
TAP	15	96	6
TAP	15	192	5
TAP	15	288	4
TAP	16	0	0
TAP	16	48	4
TAP	16	96	1
TAP	16	144	5
TAP	16	192	2
TAP	16	240	6
TAP	16	288	1
TAP	16	336	7
TAP	17	0	0
TAP	17	24	7
TAP	17	48	0
TAP	17	72	7
TAP	17	96	0
TAP	17	120	7
TAP	17	144	0
TAP	17	168	7
TAP	17	192	0
TAP	17	216	7
TAP	17	240	6
TAP	17	264	5
TAP	17	288	4
TAP	17	312	3
TAP	17	336	2
TAP	17	360	1
BRK	18	0	0
BRK	18	0	7
TAP	18	192	2
TAP	18	192	5
TAP	18	240	3
TAP	18	240	4
TAP	18	336	3
TAP	18	336	4
TAP	19	0	5
TAP	19	48	3
TAP	19	48	4
TAP	19	96	2
TAP	19	144	3
TAP	19	144	4
BRK	19	192	2
BRK	19	192	5
STR	19	288	3
SI_	19	288	3	96	48	0
STR	19	288	7
SI_	19	288	7	96	48	4
TAP	20	96	5
TAP	20	144	1
TAP	20	192	3
TAP	20	240	2
TAP	20	288	6
TAP	20	336	3
TAP	20	360	3
TAP	21	0	4
TAP	21	48	1
TAP	21	96	7
TAP	21	144	2
TAP	21	192	6
TAP	21	240	0
TAP	21	288	7
TAP	21	336	6
STR	22	0	5
SI_	22	0	5	96	48	1
TAP	22	48	4
TAP	22	192	0
TAP	22	240	1
STR	22	288	2
SI_	22	288	2	96	48	6
TAP	22	336	3
TAP	23	96	0
TAP	23	96	7
TAP	23	144	0
TAP	23	144	7
TAP	23	192	1
TAP	23	240	0
TAP	23	240	7
TAP	23	288	6
TAP	23	336	0
TAP	23	336	7
BRK	24	0	1
BRK	24	0	6
TAP	24	96	0
TAP	24	144	1
TAP	24	192	2
TAP	24	240	3
TAP	24	288	4
TAP	24	336	5
TAP	25	0	6
TAP	25	48	7
TAP	25	96	0
TAP	25	120	1
TAP	25	144	2
TAP	25	168	3
TAP	25	192	4
TAP	25	216	5
TAP	25	240	6
TAP	25	264	7
TAP	25	288	0
TAP	25	312	1
TAP	25	336	2
TAP	25	360	3
TAP	26	0	4
TAP	26	24	5
TAP	26	48	6
TAP	26	72	7
TAP	26	96	0
TAP	26	144	6
TAP	26	192	1
TAP	26	240	7
TAP	26	288	0
TAP	26	336	6
TAP	27	0	1
TAP	27	48	7
TAP	27	72	7
TAP	27	96	0
TAP	27	144	6
TAP	27	192	1
TAP	27	240	7
BRK	27	288	0
BRK	27	288	6
TAP	28	0	4
TAP	28	48	2
TAP	28	72	2
TAP	28	96	5
TAP	28	144	3
TAP	28	192	4
TAP	28	240	2
TAP	28	288	5
TAP	28	312	5
TAP	28	336	3
TAP	29	0	4
TAP	29	48	2
TAP	29	96	5
TAP	29	144	3
HLD	29	192	7	48
HLD	29	240	1	48
HLD	29	288	3	48
TAP	29	336	5
TAP	30	0	6
TAP	30	48	0
TAP	30	96	5
TAP	30	144	7
TAP	30	192	6
TAP	30	240	0
TAP	30	288	5
TAP	30	336	7
TAP	30	360	7
TAP	31	0	6
TAP	31	48	0
TAP	31	96	5
TAP	31	144	7
BRK	31	192	0
BRK	31	192	6
TAP	31	288	2
TAP	31	336	4
TAP	31	360	4
TAP	32	0	1
TAP	32	48	3
TAP	32	96	2
TAP	32	144	4
TAP	32	192	1
TAP	32	216	1
TAP	32	240	3
TAP	32	288	2
TAP	32	336	4
TAP	33	0	1
TAP	33	48	3
TAP	33	96	7
TAP	33	144	7
TAP	33	192	7
TAP	33	240	7
TAP	33	288	0
TAP	33	312	1
TAP	33	336	2
TAP	33	360	3
TAP	34	0	7
TAP	34	48	1
TAP	34	96	6
TAP	34	144	0
TAP	34	192	7
TAP	34	240	1
TAP	34	288	6
TAP	34	336	0
TAP	34	360	0
TAP	35	0	7
TAP	35	48	1
TAP	35	96	6
TAP	35	144	0
BRK	35	192	1
BRK	35	192	7
TAP	35	288	3
TAP	35	336	5
TAP	35	360	5
TAP	36	0	2
TAP	36	48	4
TAP	36	96	3
TAP	36	144	5
TAP	36	192	2
TAP	36	216	2
TAP	36	240	4
TAP	36	288	3
TAP	36	336	5
TAP	37	0	2
TAP	37	48	4
HLD	37	96	0	48
HLD	37	144	6	48
HLD	37	192	4	48
TAP	37	240	2
TAP	37	288	1
TAP	37	336	7
TAP	38	0	2
TAP	38	48	0
TAP	38	96	1
TAP	38	144	7
TAP	38	192	2
TAP	38	240	0
TAP	38	264	0
TAP	38	288	1
TAP	38	336	7
TAP	39	0	2
TAP	39	48	0
BRK	39	96	1
BRK	39	96	7
TAP	39	192	5
TAP	39	240	3
TAP	39	264	3
TAP	39	288	6
TAP	39	336	4
TAP	40	0	5
TAP	40	48	3
TAP	40	96	6
TAP	40	120	6
TAP	40	144	4
TAP	40	192	5
TAP	40	240	3
TAP	40	288	6
TAP	40	336	4
TAP	41	0	0
TAP	41	48	0
TAP	41	96	0
TAP	41	144	0
TAP	41	192	7
TAP	41	216	6
TAP	41	240	5
TAP	41	264	4
HLD	41	288	0	336
TAP	41	336	2
TAP	42	48	2
TAP	42	144	2
TAP	42	240	2
HLD	42	288	7	336
TAP	42	336	5
TAP	43	48	5
TAP	43	144	5
TAP	43	240	5
HLD	43	288	3	240
TAP	43	336	1
TAP	44	48	1
HLD	44	144	1	96
TAP	44	240	3
HLD	44	288	4	240
TAP	44	336	6
TAP	45	48	6
HLD	45	144	6	96
TAP	45	240	4
HLD	45	288	1	144
TAP	45	336	3
HLD	46	48	3	96
HLD	46	144	1	96
TAP	46	240	3
HLD	46	288	6	144
TAP	46	336	4
HLD	47	48	4	96
HLD	47	144	6	96
HLD	47	240	4	96
TAP	47	288	2
HLD	47	336	2	96
HLD	48	48	0	96
HLD	48	144	2	96
HLD	48	240	0	96
TAP	48	288	5
HLD	48	336	7	96
HLD	49	48	5	96
HLD	49	144	7	48
STR	49	192	3
SI_	49	192	3	96	48	7
STR	50	96	5
SI_	50	96	5	96	48	0
STR	50	336	2
SI_	50	336	2	96	48	7
STR	51	96	4
SI_	51	96	4	96	48	0
STR	52	0	3
SI_	52	0	3	96	48	0
STR	52	288	7
SI_	52	288	7	96	48	3
TAP	52	312	7
TAP	52	336	7
TAP	52	360	7
STR	53	96	4
SI_	53	96	4	96	48	0
STR	54	0	2
SI_	54	0	2	96	48	7
STR	54	240	5
SI_	54	240	5	96	48	0
STR	55	0	3
SI_	55	0	3	96	48	7
STR	55	288	4
SI_	55	288	4	96	48	7
TAP	56	192	1
TAP	56	216	6
TAP	56	240	1
TAP	56	264	6
TAP	56	288	0
TAP	56	336	0
TAP	57	0	7
TAP	57	48	7
TAP	57	96	0
TAP	57	144	0
TAP	57	192	7
TAP	57	240	7
TAP	57	288	0
TAP	57	336	0
TAP	58	0	1
TAP	58	0	7
TAP	58	48	6
TAP	58	96	0
TAP	58	96	6
TAP	58	144	1
TAP	58	192	4
TAP	58	240	4
TAP	58	288	1
TAP	58	336	1
TAP	59	0	2
TAP	59	48	2
TAP	59	96	1
TAP	59	144	1
TAP	59	192	2
TAP	59	192	4
TAP	59	240	3
TAP	59	288	3
TAP	59	288	5
TAP	59	336	4
TAP	60	0	2
TAP	60	0	4
TAP	60	48	3
TAP	60	96	4
TAP	60	144	4
TAP	60	192	2
TAP	60	240	2
TAP	60	288	6
TAP	60	336	6
TAP	61	0	3
TAP	61	0	5
TAP	61	48	4
TAP	61	96	2
TAP	61	96	4
TAP	61	144	3
TAP	61	192	4
TAP	61	240	4
TAP	61	288	3
TAP	61	336	3
TAP	62	0	4
TAP	62	48	4
TAP	62	96	3
TAP	62	96	5
TAP	62	144	4
TAP	62	192	2
TAP	62	192	4
TAP	62	240	3
TAP	62	288	3
TAP	62	288	5
TAP	62	336	4
TAP	63	0	5
TAP	63	48	5
TAP	63	96	0
TAP	63	144	0
TAP	63	192	7
TAP	63	240	7
TAP	63	288	0
TAP	63	336	0
TAP	64	0	7
TAP	64	48	7
TAP	64	96	0
TAP	64	96	6
TAP	64	144	1
TAP	64	192	1
TAP	64	192	7
TAP	64	240	6
TAP	64	288	5
TAP	64	336	5
TAP	65	0	6
TAP	65	48	6
TAP	65	96	3
TAP	65	144	3
TAP	65	192	6
TAP	65	240	6
TAP	65	288	3
TAP	65	288	5
TAP	65	336	4
TAP	66	0	2
TAP	66	0	4
TAP	66	48	3
TAP	66	96	3
TAP	66	96	5
TAP	66	144	4
TAP	66	192	3
TAP	66	240	3
TAP	66	288	5
TAP	66	336	5
TAP	67	0	1
TAP	67	48	1
TAP	67	96	2
TAP	67	96	4
TAP	67	144	3
TAP	67	192	3
TAP	67	192	5
TAP	67	240	4
TAP	67	288	5
TAP	67	336	5
TAP	68	0	2
TAP	68	48	2
TAP	68	96	6
TAP	68	144	6
TAP	68	192	0
TAP	68	216	7
TAP	68	240	0
TAP	68	264	7
TAP	68	288	0
TAP	68	312	7
TAP	68	336	6
TAP	68	360	5
TAP	69	0	4
TAP	69	24	3
TAP	69	48	2
TAP	69	72	1
BRK	69	96	0
BRK	69	96	7
TAP	69	288	2
TAP	69	288	5
TAP	69	336	3
TAP	69	336	4
TAP	70	48	2
TAP	70	48	4
TAP	70	96	1
TAP	70	144	3
TAP	70	144	5
TAP	70	192	6
TAP	70	240	3
TAP	70	240	4
BRK	70	288	2
BRK	70	288	5
STR	71	0	0
SI_	71	0	0	96	48	3
STR	71	0	4
SI_	71	0	4	96	48	7
TAP	71	192	5
TAP	71	240	1
TAP	71	288	3
TAP	71	336	2
TAP	72	0	6
TAP	72	48	3
TAP	72	72	3
TAP	72	96	4
TAP	72	144	5
TAP	72	192	2
TAP	72	240	6
TAP	72	288	6
TAP	72	336	0
TAP	73	0	7
TAP	73	48	6
STR	73	96	5
SI_	73	96	5	96	48	1
TAP	73	144	4
TAP	73	288	0
TAP	73	336	1
STR	74	0	2
SI_	74	0	2	96	48	6
TAP	74	48	3
TAP	74	192	1
TAP	74	192	7
TAP	74	240	2
TAP	74	288	0
TAP	74	288	6
TAP	74	336	5
TAP	75	0	7
TAP	75	48	0
BRK	75	96	1
BRK	75	96	6
TAP	75	192	0
TAP	75	240	1
TAP	75	288	2
TAP	75	336	3
TAP	76	0	4
TAP	76	48	5
TAP	76	96	6
TAP	76	144	7
TAP	76	192	0
TAP	76	216	1
TAP	76	240	2
TAP	76	264	3
TAP	76	288	4
TAP	76	312	5
TAP	76	336	6
TAP	76	360	7
TAP	77	0	0
TAP	77	24	1
TAP	77	48	2
TAP	77	72	3
TAP	77	96	4
STR	77	120	5
SI_	77	120	5	96	48	2
STR	77	144	6
SI_	77	144	6	96	48	1
STR	78	0	7
SI_	78	0	7	96	48	3
STR	78	192	1
SI_	78	192	1	96	48	3
STR	78	192	5
SI_	78	192	5	96	48	7
STR	79	0	6
SI_	79	0	6	96	48	2
STR	79	0	7
SI_	79	0	7	96	48	1
STR	80	0	6
SI_	80	0	6	96	72	1
HLD	80	0	7	216
STR	80	216	0
SUR	80	216	0	96	96	4
STR	81	288	0
SV_	81	288	0	96	144	5
STR	82	48	0
SV_	82	48	0	96	144	3
STR	84	0	7
SI_	84	0	7	96	48	1
STR	84	96	6
SI_	84	96	6	96	48	2
STR	84	192	5
SI_	84	192	5	96	48	3
STR	84	288	0
SI_	84	288	0	96	48	4
BRK	85	0	2
STR	88	0	6
SCR	88	0	6	96	96	1
STR	88	96	1
SI_	88	96	1	96	96	5
STR	88	192	5
SI_	88	192	5	96	96	2
TAP	89	0	0
TAP	89	48	7
TAP	89	96	6
TAP	89	144	5
TAP	89	192	4
TAP	89	240	3
TAP	89	288	2
TAP	89	336	1
TAP	90	0	0
TAP	90	48	7
TAP	90	96	6
TAP	90	144	5
TAP	90	192	4
TAP	90	240	3
TAP	90	288	2
TAP	90	336	1
TAP	91	0	0
TAP	91	24	7
TAP	91	48	6
TAP	91	72	5
TAP	91	96	4
TAP	91	120	3
TAP	91	144	2
TAP	91	168	1
BRK	91	192	0
BRK	91	192	7
TAP	92	0	0
TAP	92	48	0
TAP	92	96	7
TAP	92	144	7
TAP	92	192	0
TAP	92	240	0
TAP	92	288	6
TAP	92	336	6
STR	93	0	7
SI_	93	0	7	96	48	5
TAP	93	48	0
STR	93	96	7
SI_	93	96	7	96	48	3
TAP	93	144	0
TAP	93	192	7
TAP	93	240	0
TAP	93	288	0
TAP	93	336	0
TAP	94	0	3
TAP	94	48	3
TAP	94	96	2
TAP	94	144	2
STR	94	192	6
SI_	94	192	6	96	48	4
TAP	94	240	1
STR	94	288	6
SI_	94	288	6	96	48	0
TAP	94	336	1
STR	95	0	6
SI_	95	0	6	96	48	3
TAP	95	48	1
TAP	95	96	6
TAP	95	144	1
TAP	95	192	1
TAP	95	240	1
TAP	95	288	6
TAP	95	336	6
STR	96	0	0
SI_	96	0	0	96	48	2
TAP	96	48	7
STR	96	96	0
SI_	96	96	0	96	48	4
TAP	96	144	7
TAP	96	192	0
TAP	96	240	7
TAP	96	288	5
TAP	96	336	5
TAP	97	0	3
TAP	97	48	3
STR	97	96	1
SI_	97	96	1	96	48	3
TAP	97	144	6
STR	97	192	1
SI_	97	192	1	96	48	7
TAP	97	240	6
STR	97	288	1
SI_	97	288	1	96	48	4
TAP	97	336	6
TAP	98	0	1
TAP	98	48	6
TAP	98	96	6
TAP	98	144	6
TAP	98	192	0
TAP	98	240	0
TAP	98	288	7
TAP	98	336	7
TAP	99	0	0
TAP	99	48	0
STR	99	96	7
SI_	99	96	7	96	48	5
TAP	99	144	0
STR	99	192	7
SI_	99	192	7	96	48	3
TAP	99	240	0
TAP	99	288	7
TAP	99	336	0
TAP	100	0	0
TAP	100	48	0
TAP	100	96	3
TAP	100	144	3
TAP	100	192	2
TAP	100	240	2
STR	100	288	6
SI_	100	288	6	96	48	4
TAP	100	336	1
STR	101	0	6
SI_	101	0	6	96	48	0
TAP	101	48	1
STR	101	96	6
SI_	101	96	6	96	48	3
TAP	101	144	1
TAP	101	192	6
TAP	101	240	2
TAP	101	288	2
TAP	101	336	2
TAP	102	0	6
TAP	102	48	6
STR	102	96	0
SI_	102	96	0	96	48	2
TAP	102	144	7
STR	102	192	0
SI_	102	192	0	96	48	4
TAP	102	240	7
TAP	102	288	0
TAP	102	336	5
TAP	103	0	5
TAP	103	48	5
TAP	103	96	3
TAP	103	144	3
STR	103	192	1
SI_	103	192	1	96	48	3
TAP	103	240	6
STR	103	288	1
SI_	103	288	1	96	48	7
TAP	103	336	6
STR	104	0	1
SI_	104	0	1	96	48	4
TAP	104	48	6
TAP	104	96	1
TAP	104	144	6
TAP	104	192	6
TAP	104	240	6
TAP	104	288	0
TAP	104	336	0
STR	105	0	7
SI_	105	0	7	96	48	5
TAP	105	48	1
STR	105	96	7
SI_	105	96	7	96	48	2
TAP	105	144	1
STR	105	192	7
SI_	105	192	7	96	48	4
TAP	105	240	1
TAP	105	288	7
TAP	105	336	1
STR	106	0	1
SI_	106	0	1	96	48	5
TAP	106	48	6
STR	106	96	1
SI_	106	96	1	96	48	3
TAP	106	144	6
STR	106	192	1
SI_	106	192	1	96	48	4
TAP	106	240	6
TAP	106	288	1
TAP	106	336	6
STR	107	0	6
SI_	107	0	6	96	48	2
TAP	107	48	1
STR	107	96	6
SI_	107	96	6	96	48	4
TAP	107	144	1
STR	107	192	6
SI_	107	192	6	96	48	3
TAP	107	240	1
TAP	107	288	6
TAP	107	336	1
STR	108	0	0
SI_	108	0	0	96	48	2
TAP	108	48	6
STR	108	96	0
SI_	108	96	0	96	48	5
TAP	108	144	6
STR	108	192	0
SI_	108	192	0	96	48	3
TAP	108	240	6
TAP	108	288	0
TAP	108	336	6
TAP	109	0	6
TAP	109	48	6
TAP	109	96	0
TAP	109	144	0
TAP	109	192	5
TAP	109	240	5
TAP	109	288	0
TAP	109	304	7
TAP	109	320	6
TAP	109	336	5
TAP	109	352	4
TAP	109	368	3
TAP	110	0	2
TAP	110	16	1
TAP	110	32	0
TAP	110	48	7
TAP	110	64	6
TAP	110	80	5
TAP	110	96	4
TAP	110	112	3
TAP	110	128	2
TAP	110	144	1
TAP	110	160	0
TAP	110	176	7
TAP	110	192	6
TAP	110	208	5
TAP	110	224	4
TAP	110	240	3
TAP	110	256	2
TAP	110	272	1
BRK	110	288	0
BRK	110	288	7
TAP	111	96	2
TAP	111	96	5
TAP	111	144	3
TAP	111	144	4
TAP	111	240	3
TAP	111	240	4
TAP	111	288	4
TAP	111	288	5
TAP	111	336	3
TAP	111	336	4
TAP	112	0	2
TAP	112	0	3
TAP	112	48	3
TAP	112	48	4
STR	112	96	1
SI_	112	96	1	96	48	4
STR	112	96	6
SI_	112	96	6	96	48	3
BRK	112	192	1
BRK	112	192	6

T_REC_TAP	608
T_REC_BRK	27
T_REC_XTP	0
T_REC_HLD	27
T_REC_XHO	0
T_REC_STR	89
T_REC_BST	0
T_REC_XST	0
T_REC_TTP	0
T_REC_THO	0
T_REC_SLD	89
T_REC_ALL	840
T_NUM_TAP	697
T_NUM_BRK	27
T_NUM_HLD	27
T_NUM_SLD	89
T_NUM_ALL	840
T_JUDGE_TAP	724
T_JUDGE_HLD	68
T_JUDGE_SLD	89
T_JUDGE_ALL	881
TTM_EACHPAIRS	65
TTM_SCR_TAP	348500
TTM_SCR_BRK	70200
TTM_SCR_HLD	27000
TTM_SCR_SLD	133500
TTM_SCR_ALL	579200
TTM_SCR_S	559250
TTM_SCR_SS	576500
TTM_RAT_ACV	10046

