VERSION	0.00.00	1.03.00
FES_MODE	0
BPM_DEF	222.000	222.000	222.000	222.000
MET_DEF	4	4
RESOLUTION	384
CLK_DEF	384
COMPATIBLE_CODE	MA2

BPM	0	0	222.000
MET	0	0	4	4

HLD	2	0	2	384
TAP	3	0	0
TAP	3	192	3
TAP	3	192	4
HLD	4	0	5	384
TAP	5	0	7
TAP	5	192	3
TAP	5	192	4
HLD	6	0	2	384
TAP	7	0	0
TAP	7	192	3
TAP	7	192	4
HLD	8	0	5	384
TAP	9	0	7
TAP	9	192	3
TAP	9	192	4
TAP	10	0	3
TAP	11	0	4
TAP	12	0	2
TAP	12	192	5
TAP	13	0	1
TAP	13	192	6
TAP	14	0	0
TAP	14	96	7
TAP	14	192	1
TAP	14	288	6
TAP	15	0	2
TAP	15	96	5
TAP	15	192	3
TAP	15	288	4
TAP	16	0	3
TAP	16	48	4
TAP	16	96	1
TAP	16	144	3
TAP	16	192	2
TAP	16	240	6
TAP	16	288	4
TAP	16	336	5
TAP	17	0	0
TAP	17	48	7
TAP	17	96	2
TAP	17	144	0
TAP	17	192	1
TAP	17	240	5
TAP	17	288	7
BRK	18	0	1
BRK	18	0	6
TAP	18	192	6
TAP	18	192	7
TAP	18	240	6
TAP	18	240	7
TAP	18	336	0
TAP	18	336	1
TAP	19	0	0
TAP	19	0	1
TAP	19	96	1
TAP	19	96	7
TAP	19	192	0
TAP	19	192	6
TAP	19	288	2
TAP	19	288	4
TAP	20	0	3
TAP	20	0	5
TAP	20	96	2
TAP	20	144	4
TAP	20	192	5
TAP	20	240	4
TAP	20	288	3
TAP	20	336	2
TAP	21	0	3
TAP	21	48	5
TAP	21	96	4
TAP	21	144	2
TAP	21	192	3
TAP	21	288	0
TAP	21	336	5
TAP	22	0	7
TAP	22	48	6
TAP	22	96	0
TAP	22	96	5
TAP	22	192	7
TAP	22	240	2
TAP	22	288	0
TAP	22	336	1
TAP	23	0	2
TAP	23	0	7
TAP	23	96	6
TAP	23	144	4
TAP	23	192	3
TAP	23	240	1
TAP	23	288	4
TAP	23	336	3
TAP	24	0	2
TAP	24	0	5
TAP	24	96	3
TAP	24	192	3
TAP	24	288	4
TAP	25	0	4
TAP	25	96	0
TAP	25	144	0
TAP	25	192	7
TAP	25	240	7
TAP	25	288	0
TAP	25	336	0
TAP	26	0	7
TAP	26	96	1
TAP	26	144	2
TAP	26	192	0
TAP	26	240	7
TAP	26	288	1
TAP	26	336	2
TAP	27	0	0
TAP	27	48	7
TAP	27	96	1
TAP	27	144	2
TAP	27	192	0
TAP	27	240	7
TAP	27	288	2
TAP	27	288	4
TAP	28	0	6
TAP	28	48	5
TAP	28	96	7
TAP	28	144	0
TAP	28	192	6
TAP	28	240	5
TAP	28	288	7
TAP	28	336	0
TAP	29	0	6
TAP	29	48	5
TAP	29	96	7
TAP	29	144	0
TAP	29	192	5
TAP	29	240	4
TAP	29	288	2
TAP	29	336	3
TAP	30	0	2
TAP	30	48	1
TAP	30	96	3
TAP	30	144	4
TAP	30	192	2
TAP	30	240	1
TAP	30	288	3
TAP	30	336	4
TAP	31	0	2
TAP	31	48	1
TAP	31	96	3
TAP	31	144	4
TAP	31	192	1
TAP	31	192	7
TAP	31	288	5
TAP	31	336	6
TAP	32	0	4
TAP	32	48	3
TAP	32	96	5
TAP	32	144	6
TAP	32	192	4
TAP	32	240	3
TAP	32	288	5
TAP	32	336	6
TAP	33	0	4
TAP	33	48	3
STR	33	96	4
SUL	33	96	4	96	144	3
TAP	34	0	6
TAP	34	48	4
TAP	34	96	7
TAP	34	144	2
TAP	34	192	6
TAP	34	240	4
TAP	34	288	7
TAP	34	336	2
TAP	35	0	6
TAP	35	48	4
TAP	35	96	7
TAP	35	144	2
TAP	35	192	1
TAP	35	192	3
TAP	35	288	1
TAP	35	336	3
TAP	36	0	0
TAP	36	48	6
TAP	36	96	1
TAP	36	144	3
TAP	36	192	0
TAP	36	240	6
TAP	36	288	1
TAP	36	336	3
TAP	37	0	0
TAP	37	48	6
TAP	37	96	2
TAP	37	144	3
TAP	37	192	5
TAP	37	240	4
TAP	37	288	2
TAP	37	336	0
TAP	38	0	3
TAP	38	48	6
TAP	38	96	2
TAP	38	144	0
TAP	38	192	3
TAP	38	240	6
TAP	38	288	2
TAP	38	336	0
TAP	39	0	3
TAP	39	48	6
TAP	39	96	5
TAP	39	96	7
TAP	39	192	5
TAP	39	240	7
TAP	39	288	4
TAP	39	336	2
TAP	40	0	5
TAP	40	48	7
TAP	40	96	4
TAP	40	144	2
TAP	40	192	5
TAP	40	240	7
TAP	40	288	4
TAP	40	336	2
STR	41	0	5
SSR	41	0	5	96	144	1
TAP	41	288	7
TAP	41	336	6
TAP	42	48	6
TAP	42	144	6
TAP	42	240	6
TAP	42	288	0
TAP	42	336	5
TAP	43	48	5
TAP	43	144	5
TAP	43	240	5
TAP	43	288	1
TAP	43	336	4
TAP	44	48	4
TAP	44	144	4
TAP	44	240	4
TAP	44	288	2
TAP	44	336	3
TAP	45	48	3
TAP	45	144	3
TAP	45	240	3
TAP	45	288	0
TAP	45	336	1
TAP	46	48	1
TAP	46	144	1
TAP	46	240	1
TAP	46	288	7
TAP	46	336	2
TAP	47	48	2
TAP	47	144	2
TAP	47	240	2
TAP	47	288	6
TAP	47	336	3
TAP	48	48	3
TAP	48	144	3
TAP	48	240	3
TAP	48	288	5
TAP	48	336	4
TAP	49	48	4
TAP	49	144	4
TAP	49	192	0
TAP	49	240	5
TAP	49	336	5
TAP	50	48	5
TAP	50	96	1
TAP	50	144	6
TAP	50	240	6
TAP	50	336	2
TAP	50	336	6
TAP	51	48	6
TAP	51	96	2
TAP	51	144	7
TAP	51	240	7
TAP	51	336	7
TAP	52	0	3
TAP	52	48	0
TAP	52	144	0
TAP	52	240	0
TAP	52	288	4
TAP	52	336	1
TAP	53	48	1
TAP	53	96	5
TAP	53	144	2
TAP	53	240	2
TAP	53	336	2
TAP	54	0	6
TAP	54	48	3
TAP	54	144	3
TAP	54	240	3
TAP	54	240	7
TAP	54	336	3
TAP	55	0	7
TAP	55	48	4
TAP	55	144	4
TAP	55	240	4
TAP	55	288	0
TAP	55	336	5
TAP	56	48	5
TAP	56	144	5
BRK	56	192	1
TAP	56	288	3
TAP	56	288	6
TAP	57	0	0
TAP	57	0	5
STR	57	96	7
SI_	57	96	7	96	48	3
TAP	57	144	7
TAP	57	240	0
TAP	57	288	0
TAP	58	0	2
TAP	58	0	7
TAP	58	96	1
TAP	58	96	4
STR	58	192	6
SI_	58	192	6	96	48	2
TAP	58	240	6
HLD	58	336	1	96
TAP	59	48	0
TAP	59	96	0
TAP	59	192	3
TAP	59	192	6
TAP	59	288	1
TAP	59	288	4
TAP	60	0	2
TAP	60	0	3
STR	60	96	1
SI_	60	96	1	96	48	5
TAP	60	144	1
TAP	60	240	6
TAP	60	288	6
TAP	61	0	0
TAP	61	0	5
TAP	61	96	2
TAP	61	96	7
STR	61	192	0
SI_	61	192	0	96	48	4
TAP	61	240	0
TAP	61	336	7
TAP	62	0	7
TAP	62	96	0
TAP	62	96	2
TAP	62	192	3
TAP	62	192	4
TAP	62	288	5
TAP	62	288	7
TAP	63	0	1
TAP	63	0	4
TAP	63	96	2
TAP	63	96	7
STR	63	192	0
SI_	63	192	0	96	48	4
TAP	63	240	0
TAP	63	336	7
TAP	64	0	7
TAP	64	96	0
TAP	64	96	5
TAP	64	192	3
TAP	64	192	6
STR	64	288	1
SI_	64	288	1	96	48	5
TAP	64	336	1
HLD	65	48	6	96
TAP	65	144	7
TAP	65	192	7
TAP	65	288	1
TAP	65	288	4
TAP	66	0	3
TAP	66	0	6
TAP	66	96	4
TAP	66	96	5
STR	66	192	6
SI_	66	192	6	96	48	2
TAP	66	240	6
TAP	66	336	1
TAP	67	0	1
TAP	67	96	2
TAP	67	96	7
TAP	67	192	0
TAP	67	192	5
STR	67	288	7
SI_	67	288	7	96	48	3
TAP	67	336	7
TAP	68	48	0
TAP	68	96	0
TAP	68	192	5
TAP	68	192	7
TAP	68	288	3
TAP	68	288	4
TAP	69	0	0
TAP	69	0	2
BRK	69	96	1
BRK	69	96	6
TAP	69	288	0
TAP	69	288	1
TAP	69	336	0
TAP	69	336	1
TAP	70	48	6
TAP	70	48	7
TAP	70	96	6
TAP	70	96	7
TAP	70	192	0
TAP	70	192	6
TAP	70	288	1
TAP	70	288	7
TAP	71	0	3
TAP	71	0	5
TAP	71	96	2
TAP	71	96	4
TAP	71	192	5
TAP	71	240	3
TAP	71	288	2
TAP	71	336	3
TAP	72	0	4
TAP	72	48	5
TAP	72	96	4
TAP	72	144	2
TAP	72	192	3
TAP	72	240	5
TAP	72	288	4
TAP	73	0	7
TAP	73	48	2
TAP	73	96	0
TAP	73	144	1
TAP	73	192	2
TAP	73	192	7
TAP	73	288	0
TAP	73	336	5
TAP	74	0	7
TAP	74	48	6
TAP	74	96	0
TAP	74	96	5
TAP	74	192	1
TAP	74	240	3
TAP	74	288	4
TAP	74	336	6
TAP	75	0	3
TAP	75	48	4
BRK	75	96	2
BRK	75	96	5
TAP	75	192	0
TAP	75	288	6
TAP	76	0	4
TAP	76	96	2
TAP	76	192	7
TAP	76	240	7
TAP	76	288	0
TAP	76	336	0
TAP	77	0	6
TAP	77	48	6
TAP	77	96	1
STR	77	192	7
SCL	77	192	7	96	192	4
STR	78	192	7
SCL	78	192	7	96	288	3
STR	80	0	7
SCL	80	0	7	96	384	2
STR	81	288	7
SCL	81	288	7	96	480	1
STR	84	0	7
SCL	84	0	7	96	1056	0
TAP	84	48	7
TAP	87	192	3
TAP	87	288	3
TAP	88	0	4
TAP	88	96	4
TAP	88	192	2
TAP	88	288	2
TAP	89	0	5
TAP	89	96	1
TAP	89	192	6
TAP	89	288	0
TAP	90	0	7
TAP	90	48	7
TAP	90	96	0
TAP	90	144	0
TAP	90	192	5
TAP	90	240	5
TAP	90	288	2
TAP	90	336	2
TAP	91	0	4
TAP	91	48	3
TAP	91	96	4
BRK	91	192	2
BRK	91	192	5
TAP	92	0	0
TAP	92	0	4
TAP	92	96	2
TAP	92	96	6
STR	92	192	1
SUR	92	192	1	96	48	5
TAP	92	240	1
TAP	92	336	6
TAP	93	0	6
TAP	93	96	3
TAP	93	96	7
TAP	93	192	1
TAP	93	192	5
STR	93	288	6
SUL	93	288	6	96	48	2
TAP	93	336	6
HLD	94	48	0	96
TAP	94	144	7
TAP	94	192	7
TAP	94	288	2
TAP	94	288	6
TAP	95	0	0
TAP	95	0	4
TAP	95	96	2
TAP	95	96	3
STR	95	192	7
SV_	95	192	7	96	48	2
TAP	95	240	7
TAP	95	336	0
TAP	96	0	0
TAP	96	96	1
TAP	96	96	5
TAP	96	192	3
TAP	96	192	7
STR	96	288	0
SV_	96	288	0	96	48	5
TAP	96	336	0
TAP	97	48	7
TAP	97	96	7
TAP	97	192	1
TAP	97	192	3
TAP	97	288	0
TAP	97	288	7
TAP	98	0	4
TAP	98	0	6
TAP	98	96	3
TAP	98	96	7
TAP	98	192	1
TAP	98	192	5
STR	98	288	6
SUL	98	288	6	96	48	2
TAP	98	336	6
TAP	99	48	1
TAP	99	96	1
TAP	99	192	0
TAP	99	192	4
TAP	99	288	2
TAP	99	288	6
STR	100	0	1
SUR	100	0	1	96	48	5
TAP	100	48	1
HLD	100	144	7	96
TAP	100	240	0
TAP	100	288	0
TAP	101	0	1
TAP	101	0	5
TAP	101	96	3
TAP	101	96	7
TAP	101	192	4
TAP	101	192	5
STR	101	288	0
SV_	101	288	0	96	48	5
TAP	101	336	0
TAP	102	48	7
TAP	102	96	7
TAP	102	192	2
TAP	102	192	6
TAP	102	288	0
TAP	102	288	4
STR	103	0	7
SV_	103	0	7	96	48	2
TAP	103	48	7
TAP	103	144	0
TAP	103	192	0
TAP	103	288	4
TAP	103	288	5
TAP	103	360	3
TAP	103	360	4
TAP	104	48	2
TAP	104	48	3
TAP	104	144	5
TAP	104	192	3
TAP	104	240	2
TAP	104	288	3
TAP	104	336	4
TAP	105	0	1
TAP	105	48	3
TAP	105	144	5
TAP	105	192	4
TAP	105	240	6
TAP	105	288	4
TAP	106	0	2
TAP	106	0	3
TAP	106	72	3
TAP	106	72	4
TAP	106	144	4
TAP	106	144	5
TAP	106	240	2
TAP	106	288	3
TAP	106	336	1
TAP	107	0	3
TAP	107	96	0
TAP	107	144	6
TAP	107	192	4
TAP	107	240	7
TAP	107	288	0
TAP	107	336	5
TAP	108	0	4
TAP	108	48	6
TAP	108	144	7
TAP	108	192	1
TAP	108	240	3
TAP	108	288	0
TAP	108	336	7
TAP	109	0	2
TAP	109	48	3
TAP	109	96	1
TAP	109	144	7
TAP	109	192	0
TAP	109	240	6
TAP	109	288	4
TAP	109	336	7
TAP	110	0	0
TAP	110	48	5
TAP	110	96	4
TAP	110	144	6
TAP	110	192	0
BRK	110	288	1
BRK	110	288	6
TAP	111	96	3
TAP	111	96	4
TAP	111	144	3
TAP	111	144	4
TAP	111	240	0
TAP	111	240	7
TAP	111	288	0
TAP	111	288	7
TAP	112	0	1
TAP	112	0	6
TAP	112	96	3
TAP	112	96	4
BRK	112	192	1
BRK	112	192	6

T_REC_TAP	570
T_REC_BRK	13
T_REC_XTP	0
T_REC_HLD	8
T_REC_XHO	0
T_REC_STR	23
T_REC_BST	0
T_REC_XST	0
T_REC_TTP	0
T_REC_THO	0
T_REC_SLD	23
T_REC_ALL	637
T_NUM_TAP	593
T_NUM_BRK	13
T_NUM_HLD	8
T_NUM_SLD	23
T_NUM_ALL	637
T_JUDGE_TAP	606
T_JUDGE_HLD	40
T_JUDGE_SLD	23
T_JUDGE_ALL	669
TTM_EACHPAIRS	94
TTM_SCR_TAP	296500
TTM_SCR_BRK	33800
TTM_SCR_HLD	8000
TTM_SCR_SLD	34500
TTM_SCR_ALL	372800
TTM_SCR_S	360400
TTM_SCR_SS	371500
TTM_RAT_ACV	10034

