VERSION	0.00.00	1.03.00
FES_MODE	0
BPM_DEF	222.000	222.000	222.000	222.000
MET_DEF	4	4
RESOLUTION	384
CLK_DEF	384
COMPATIBLE_CODE	MA2

BPM	0	0	222.000
MET	0	0	4	4

HLD	2	0	2	384
HLD	3	0	4	384
HLD	4	0	3	384
HLD	5	0	5	384
HLD	6	0	1	384
HLD	7	0	4	384
HLD	8	0	3	384
HLD	9	0	5	384
HLD	10	0	2	384
HLD	11	0	4	384
HLD	12	0	0	384
HLD	13	0	6	384
HLD	14	0	1	384
HLD	15	0	7	384
HLD	16	0	3	384
HLD	17	0	5	384
TAP	18	0	2
BRK	18	192	0
BRK	18	192	7
TAP	19	0	1
TAP	19	0	6
TAP	19	96	1
TAP	19	96	6
TAP	19	192	1
TAP	19	192	6
TAP	19	288	0
TAP	20	0	0
TAP	20	96	7
TAP	20	192	7
TAP	20	288	2
TAP	21	0	2
TAP	21	96	5
TAP	21	192	5
TAP	21	288	3
TAP	22	0	4
TAP	22	96	3
TAP	22	192	5
TAP	22	288	5
TAP	23	0	5
TAP	23	96	1
TAP	23	192	1
TAP	23	288	1
BRK	24	0	7
STR	26	96	0
SI_	26	96	0	96	336	4
STR	28	0	6
SCR	28	0	6	96	432	2
STR	30	0	3
SI_	30	0	3	96	336	7
STR	31	288	5
SCR	31	288	5	96	528	1
STR	34	0	2
SCL	34	0	2	96	432	5
STR	36	0	4
SUR	36	0	4	96	336	3
STR	37	288	2
SI_	37	288	2	96	336	6
STR	39	192	7
SSR	39	192	7	96	528	3
HLD	41	288	1	384
HLD	42	288	7	384
HLD	43	288	0	384
HLD	44	288	6	384
HLD	45	288	3	384
HLD	46	288	5	384
HLD	47	288	1	384
HLD	48	288	4	384
HLD	49	288	0	384
HLD	50	288	6	384
HLD	51	288	3	384
HLD	52	288	5	384
HLD	53	288	1	384
HLD	54	288	7	384
HLD	55	288	0	384
TAP	56	288	7
TAP	57	0	0
TAP	57	0	7
TAP	57	96	1
TAP	57	192	6
TAP	57	288	2
TAP	58	0	3
TAP	58	0	4
TAP	58	96	3
TAP	58	96	4
TAP	58	192	5
TAP	58	288	5
TAP	59	0	2
TAP	59	96	2
TAP	59	192	1
TAP	59	192	6
TAP	59	288	1
TAP	59	288	6
TAP	60	0	1
TAP	60	0	6
TAP	60	96	2
TAP	60	192	3
TAP	60	288	4
TAP	61	0	2
TAP	61	0	5
TAP	61	96	2
TAP	61	96	5
TAP	61	192	1
TAP	61	288	7
TAP	62	0	0
TAP	62	96	1
TAP	62	96	6
TAP	62	192	1
TAP	62	192	6
TAP	62	288	1
TAP	62	288	6
TAP	63	0	2
TAP	63	0	5
TAP	63	96	2
TAP	63	96	5
TAP	63	192	6
TAP	63	288	0
TAP	64	0	7
TAP	64	96	1
TAP	64	96	6
TAP	64	192	1
TAP	64	192	6
TAP	64	288	5
TAP	65	0	5
TAP	65	96	2
TAP	65	192	2
TAP	65	288	3
TAP	65	288	4
TAP	66	0	3
TAP	66	0	4
TAP	66	96	3
TAP	66	96	4
TAP	66	192	5
TAP	66	288	4
TAP	67	0	3
TAP	67	96	2
TAP	67	96	5
TAP	67	192	2
TAP	67	192	5
TAP	67	288	6
TAP	68	0	0
TAP	68	96	7
TAP	68	192	1
TAP	68	192	6
TAP	68	288	1
TAP	68	288	6
TAP	69	0	0
TAP	69	0	7
BRK	69	96	0
BRK	69	96	7
BRK	69	288	2
BRK	69	288	5
TAP	70	96	3
TAP	70	96	4
TAP	70	192	3
TAP	70	192	4
TAP	70	288	3
TAP	70	288	4
TAP	71	0	2
TAP	71	96	2
TAP	71	192	6
TAP	71	288	6
TAP	72	0	1
TAP	72	96	1
TAP	72	192	5
TAP	72	288	5
TAP	73	0	3
TAP	73	96	4
TAP	73	192	3
TAP	73	288	6
TAP	74	0	6
TAP	74	96	6
TAP	74	192	0
TAP	74	288	0
TAP	75	0	0
BRK	75	96	0
BRK	75	96	7
STR	77	192	7
SI_	77	192	7	96	192	1
STR	78	192	2
SI_	78	192	2	96	384	6
STR	80	0	5
SI_	80	0	5	96	192	3
STR	81	288	0
SI_	81	288	0	96	384	4
BRK	84	0	2
BRK	91	192	0
BRK	91	192	7
TAP	92	0	0
TAP	92	0	1
STR	92	96	1
SI_	92	96	1	96	144	4
TAP	93	96	4
TAP	93	96	5
STR	93	192	5
SCL	93	192	5	96	192	2
TAP	94	288	0
TAP	94	288	1
TAP	95	0	6
TAP	95	0	7
STR	95	96	6
SI_	95	96	6	96	144	3
TAP	96	96	2
TAP	96	96	3
STR	96	192	2
SCR	96	192	2	96	192	5
TAP	97	192	6
TAP	97	192	7
TAP	97	288	0
TAP	97	288	7
TAP	98	0	0
TAP	98	0	1
TAP	98	96	0
TAP	98	96	7
STR	98	192	0
SI_	98	192	0	96	144	4
TAP	99	192	4
TAP	99	192	5
STR	99	288	5
SI_	99	288	5	96	192	1
TAP	101	0	0
TAP	101	0	1
TAP	101	96	0
TAP	101	96	7
STR	101	192	7
SI_	101	192	7	96	144	3
TAP	102	192	2
TAP	102	192	3
STR	102	288	2
SI_	102	288	2	96	144	6
TAP	103	288	6
TAP	103	288	7
TAP	104	0	0
TAP	104	0	7
TAP	104	96	1
TAP	104	192	1
TAP	104	288	5
TAP	105	0	5
TAP	105	96	3
TAP	105	192	3
TAP	105	288	7
TAP	106	0	7
TAP	106	96	0
TAP	106	192	1
TAP	106	288	2
TAP	107	0	3
TAP	107	0	4
TAP	107	96	5
TAP	107	192	4
TAP	107	288	3
TAP	108	0	2
TAP	108	96	2
TAP	108	96	3
TAP	108	192	5
TAP	108	288	4
TAP	108	288	5
TAP	109	0	6
TAP	109	96	6
TAP	109	96	7
TAP	109	192	1
TAP	109	288	0
TAP	109	288	1
TAP	110	0	7
TAP	110	96	0
TAP	110	96	7
TAP	110	192	1
TAP	110	192	6
BRK	110	288	1
BRK	110	288	6
BRK	111	96	3
BRK	111	96	4
TAP	111	288	2
TAP	111	288	5
TAP	112	0	1
TAP	112	0	6
TAP	112	96	0
TAP	112	96	7
BRK	112	192	0
BRK	112	192	7

T_REC_TAP	189
T_REC_BRK	18
T_REC_XTP	0
T_REC_HLD	31
T_REC_XHO	0
T_REC_STR	20
T_REC_BST	0
T_REC_XST	0
T_REC_TTP	0
T_REC_THO	0
T_REC_SLD	20
T_REC_ALL	278
T_NUM_TAP	209
T_NUM_BRK	18
T_NUM_HLD	31
T_NUM_SLD	20
T_NUM_ALL	278
T_JUDGE_TAP	227
T_JUDGE_HLD	248
T_JUDGE_SLD	20
T_JUDGE_ALL	495
TTM_EACHPAIRS	62
TTM_SCR_TAP	104500
TTM_SCR_BRK	46800
TTM_SCR_HLD	31000
TTM_SCR_SLD	30000
TTM_SCR_ALL	212300
TTM_SCR_S	204200
TTM_SCR_SS	210500
TTM_RAT_ACV	10085

