VERSION	0.00.00	1.03.00
FES_MODE	0
BPM_DEF	222.000	222.000	222.000	222.000
MET_DEF	4	4
RESOLUTION	384
CLK_DEF	384
COMPATIBLE_CODE	MA2

BPM	0	0	222.000
MET	0	0	4	4

TAP	2	0	3
TAP	3	0	4
TAP	4	0	2
TAP	5	0	5
TAP	6	0	1
TAP	7	0	6
TAP	8	0	0
TAP	9	0	7
TAP	10	0	0
TAP	11	0	7
TAP	12	0	1
TAP	13	0	6
TAP	14	0	2
TAP	15	0	5
TAP	16	0	3
TAP	17	0	4
BRK	18	0	3
BRK	18	0	4
TAP	18	192	3
TAP	18	192	4
TAP	19	0	3
TAP	19	0	4
TAP	19	192	3
TAP	19	192	4
TAP	20	0	2
TAP	20	192	2
TAP	21	0	4
TAP	21	0	5
TAP	21	192	6
TAP	21	288	6
TAP	22	0	6
TAP	22	192	0
TAP	22	288	0
TAP	23	0	0
TAP	23	96	7
TAP	23	192	7
TAP	23	288	7
TAP	24	0	7
TAP	26	96	1
TAP	26	288	1
TAP	27	96	0
TAP	27	96	1
HLD	27	288	1	576
TAP	30	0	2
TAP	30	192	2
TAP	31	0	2
TAP	31	0	3
HLD	31	192	2	672
TAP	34	0	5
TAP	34	192	5
TAP	35	0	4
TAP	35	0	5
HLD	35	192	5	576
TAP	37	288	6
TAP	38	96	6
TAP	38	288	6
TAP	38	288	7
HLD	39	96	6	672
TAP	41	288	0
TAP	42	288	0
TAP	43	288	0
TAP	44	288	0
TAP	45	288	0
TAP	46	288	0
TAP	47	288	0
TAP	48	288	0
TAP	49	288	0
TAP	49	288	7
TAP	50	288	0
TAP	50	288	1
TAP	51	288	2
TAP	51	288	3
TAP	52	288	3
TAP	52	288	4
TAP	53	288	4
TAP	53	288	5
TAP	54	288	6
TAP	54	288	7
TAP	55	288	0
TAP	55	288	7
TAP	56	288	7
TAP	57	0	7
TAP	57	96	7
TAP	58	0	6
TAP	58	0	7
TAP	58	96	6
TAP	58	96	7
TAP	59	192	0
TAP	59	288	0
TAP	60	0	0
TAP	61	0	0
TAP	61	0	1
TAP	61	96	0
TAP	61	96	1
TAP	62	96	7
TAP	62	192	7
TAP	62	288	7
TAP	64	96	6
TAP	64	96	7
TAP	64	192	6
TAP	64	192	7
TAP	65	288	0
TAP	66	0	0
TAP	66	96	0
TAP	67	96	0
TAP	67	96	1
TAP	67	192	0
TAP	67	192	1
BRK	69	96	0
BRK	69	96	7
TAP	69	288	0
TAP	69	288	7
TAP	70	96	0
TAP	70	96	7
TAP	70	192	0
TAP	70	192	7
TAP	70	288	0
TAP	70	288	7
TAP	71	96	1
TAP	71	288	1
TAP	72	96	6
TAP	72	288	6
TAP	73	0	6
TAP	73	96	6
TAP	73	288	0
TAP	74	0	0
TAP	74	96	0
TAP	74	192	7
TAP	74	288	7
TAP	75	0	7
TAP	75	96	7
TAP	76	192	0
TAP	77	0	7
TAP	77	192	0
TAP	77	192	7
TAP	78	192	1
TAP	78	192	6
TAP	80	0	2
TAP	80	0	5
TAP	81	288	3
TAP	81	288	4
STR	84	0	0
SI_	84	0	0	96	672	3
STR	84	0	7
SI_	84	0	7	96	672	4
TAP	92	0	2
TAP	92	96	2
TAP	92	192	2
TAP	93	96	2
TAP	93	96	3
TAP	93	192	2
TAP	93	192	3
TAP	94	288	5
TAP	95	0	5
TAP	95	96	5
TAP	96	96	4
TAP	96	96	5
TAP	96	192	4
TAP	96	192	5
TAP	97	192	2
TAP	97	288	2
TAP	98	0	2
TAP	99	192	2
TAP	99	192	3
TAP	99	288	2
TAP	99	288	3
TAP	101	0	5
TAP	101	96	5
TAP	101	192	5
TAP	102	192	4
TAP	102	192	5
TAP	102	288	4
TAP	102	288	5
TAP	104	192	6
TAP	104	288	6
TAP	105	0	6
TAP	106	0	7
TAP	106	96	7
TAP	106	192	7
TAP	107	192	0
TAP	107	288	0
TAP	108	0	0
TAP	109	0	1
TAP	109	96	1
TAP	109	192	1
TAP	110	96	0
TAP	110	96	7
TAP	110	192	0
TAP	110	192	7
TAP	110	288	0
TAP	110	288	7
TAP	111	96	0
TAP	111	96	7
TAP	111	288	1
TAP	111	288	6
TAP	112	0	1
TAP	112	0	6
BRK	112	96	1
BRK	112	96	6

T_REC_TAP	185
T_REC_BRK	6
T_REC_XTP	0
T_REC_HLD	4
T_REC_XHO	0
T_REC_STR	2
T_REC_BST	0
T_REC_XST	0
T_REC_TTP	0
T_REC_THO	0
T_REC_SLD	2
T_REC_ALL	199
T_NUM_TAP	187
T_NUM_BRK	6
T_NUM_HLD	4
T_NUM_SLD	2
T_NUM_ALL	199
T_JUDGE_TAP	193
T_JUDGE_HLD	52
T_JUDGE_SLD	2
T_JUDGE_ALL	247
TTM_EACHPAIRS	49
TTM_SCR_TAP	93500
TTM_SCR_BRK	15600
TTM_SCR_HLD	4000
TTM_SCR_SLD	3000
TTM_SCR_ALL	116100
TTM_SCR_S	112050
TTM_SCR_SS	115500
TTM_RAT_ACV	10051

