VERSION	0.00.00	1.03.00
FES_MODE	0
BPM_DEF	192.000	192.000	192.000	192.000
MET_DEF	4	4
RESOLUTION	384
CLK_DEF	384
COMPATIBLE_CODE	MA2

BPM	0	0	192.000
MET	0	0	4	4
MET	27	0	4	1
MET	27	96	4	4
MET	35	96	4	3
MET	36	288	4	1
MET	37	0	4	3
MET	38	192	4	4
MET	39	192	4	3
MET	41	0	4	1
MET	41	96	4	3
MET	42	288	8	3
MET	43	48	4	4
MET	46	48	4	4
MET	48	48	4	1
MET	48	144	4	4
MET	72	144	4	3
MET	73	48	4	4

STR	1	0	1
SUR	1	0	1	96	1056	4
TAP	5	0	0
TAP	5	0	1
TAP	5	96	3
TAP	5	144	2
TAP	5	240	4
TAP	5	288	3
TAP	6	48	5
TAP	6	96	4
TAP	6	144	5
TAP	6	240	0
TAP	6	288	7
TAP	6	336	0
TAP	7	0	6
TAP	7	0	7
TAP	7	96	4
TAP	7	144	5
TAP	7	240	3
TAP	7	288	4
TAP	8	48	2
TAP	8	96	3
TAP	8	144	2
TAP	8	192	7
TAP	8	216	0
TAP	8	240	7
TAP	8	288	2
TAP	8	336	3
TAP	9	0	1
TAP	9	0	5
TAP	9	96	0
TAP	9	144	2
TAP	9	144	6
TAP	9	240	7
TAP	9	288	1
TAP	9	288	5
TAP	9	336	2
TAP	10	48	4
TAP	10	96	5
TAP	10	144	4
TAP	10	192	3
TAP	10	240	4
TAP	10	288	5
TAP	10	336	4
TAP	11	0	3
TAP	11	0	7
TAP	11	96	6
TAP	11	144	0
TAP	11	144	4
TAP	11	240	1
TAP	11	288	3
TAP	11	288	7
TAP	11	336	6
TAP	12	48	3
TAP	12	96	2
TAP	12	144	3
TAP	12	192	4
TAP	12	216	3
TAP	12	240	4
TAP	12	288	3
TAP	12	336	2
TAP	13	0	1
TAP	13	0	3
TAP	13	48	2
TAP	13	96	3
TAP	13	144	4
TAP	13	144	6
TAP	13	192	5
TAP	13	240	4
TAP	13	288	1
TAP	13	288	3
TAP	13	336	2
TAP	14	48	4
TAP	14	96	3
TAP	14	96	5
TAP	14	144	2
TAP	14	192	1
TAP	14	216	0
TAP	14	240	1
TAP	14	288	2
TAP	14	336	3
TAP	15	0	2
TAP	15	0	6
TAP	15	48	5
TAP	15	96	4
TAP	15	144	1
TAP	15	144	5
TAP	15	192	2
TAP	15	240	3
TAP	15	288	2
TAP	15	288	6
TAP	15	336	5
TAP	16	48	0
TAP	16	96	1
TAP	16	96	7
TAP	16	144	6
TAP	16	192	0
TAP	16	216	7
TAP	16	240	0
TAP	16	264	7
BRK	16	288	1
BRK	16	288	6
TAP	17	0	2
TAP	17	0	3
TAP	17	96	3
TAP	17	96	4
TAP	17	192	4
TAP	17	192	5
TAP	17	288	3
TAP	17	288	4
TAP	18	0	2
TAP	18	0	3
TAP	18	96	3
TAP	18	96	4
TAP	18	192	4
TAP	18	192	5
TAP	18	288	3
TAP	18	288	5
TAP	18	336	2
TAP	18	336	4
TAP	19	0	1
TAP	19	0	3
TAP	19	96	2
TAP	19	96	5
TAP	19	192	4
TAP	19	192	6
TAP	19	288	0
TAP	19	288	7
TAP	20	0	2
TAP	20	0	3
TAP	20	48	3
TAP	20	48	4
TAP	20	96	4
TAP	20	96	5
TAP	20	192	4
TAP	20	192	5
TAP	20	264	3
TAP	20	288	4
TAP	20	336	2
TAP	20	336	3
TAP	21	0	3
TAP	21	0	4
TAP	21	96	3
TAP	21	96	5
TAP	21	192	1
TAP	21	192	4
TAP	21	288	2
TAP	21	288	6
TAP	22	0	1
TAP	22	0	5
TAP	22	96	3
TAP	22	96	7
TAP	22	192	0
TAP	22	192	4
TAP	22	240	1
TAP	22	240	5
TAP	22	288	2
TAP	22	288	6
TAP	22	336	3
TAP	22	336	7
TAP	23	0	1
TAP	23	0	5
TAP	23	48	2
TAP	23	96	3
TAP	23	96	7
TAP	23	144	6
TAP	23	192	0
TAP	23	192	4
TAP	23	240	1
TAP	23	288	2
TAP	23	288	6
TAP	23	336	5
TAP	24	0	0
TAP	24	32	4
TAP	24	64	2
TAP	24	96	7
TAP	24	128	1
TAP	24	160	5
TAP	24	192	3
TAP	24	224	6
TAP	24	256	1
STR	24	288	4
SSL	24	288	4	96	480	0
TAP	24	320	3
HLD	24	352	7	800
TAP	27	0	0
TAP	27	24	1
TAP	27	48	2
TAP	27	72	3
TAP	27	96	4
TAP	27	96	5
TAP	27	144	6
TAP	27	168	4
TAP	27	216	5
TAP	27	240	3
TAP	27	288	4
TAP	27	312	2
TAP	27	360	3
TAP	28	0	1
TAP	28	48	1
TAP	28	96	2
TAP	28	96	3
TAP	28	144	1
TAP	28	168	3
TAP	28	216	2
TAP	28	240	4
TAP	28	288	3
TAP	28	312	5
TAP	28	360	4
TAP	29	0	6
TAP	29	48	6
TAP	29	96	4
TAP	29	96	5
TAP	29	144	5
TAP	29	168	7
TAP	29	216	6
TAP	29	240	0
TAP	29	288	7
TAP	29	312	1
TAP	29	360	0
TAP	30	0	2
TAP	30	48	2
TAP	30	48	3
TAP	30	96	1
TAP	30	120	0
TAP	30	144	1
TAP	30	168	0
TAP	30	216	6
TAP	30	240	7
TAP	30	264	6
TAP	30	288	7
TAP	30	336	0
TAP	30	360	7
TAP	31	0	1
TAP	31	24	6
TAP	31	48	2
TAP	31	72	5
TAP	31	96	3
TAP	31	96	4
TAP	31	144	1
TAP	31	168	4
TAP	31	216	2
TAP	31	240	5
TAP	31	288	3
TAP	31	312	6
TAP	31	360	4
TAP	32	0	7
TAP	32	48	7
TAP	32	96	1
TAP	32	96	6
TAP	32	144	6
TAP	32	168	3
TAP	32	216	5
TAP	32	240	2
TAP	32	288	4
TAP	32	312	1
TAP	32	360	3
TAP	33	0	0
TAP	33	48	0
TAP	33	96	1
TAP	33	96	6
TAP	33	144	0
TAP	33	168	4
TAP	33	216	1
TAP	33	240	5
TAP	33	288	2
TAP	33	312	6
TAP	33	360	3
TAP	34	0	7
TAP	34	48	1
TAP	34	48	6
TAP	34	96	2
TAP	34	120	3
TAP	34	144	2
TAP	34	168	3
TAP	34	216	5
TAP	34	240	4
TAP	34	264	5
TAP	34	288	4
TAP	34	336	3
TAP	34	360	4
TAP	35	0	2
TAP	35	24	5
TAP	35	48	1
TAP	35	72	6
TAP	35	96	0
TAP	35	96	7
TAP	35	192	2
TAP	35	240	4
TAP	35	288	1
TAP	36	0	0
TAP	36	0	7
TAP	36	96	5
TAP	36	144	3
TAP	36	192	6
TAP	36	288	3
TAP	36	288	4
TAP	37	0	2
TAP	37	0	6
TAP	37	96	0
TAP	37	144	4
TAP	37	192	2
TAP	37	192	6
TAP	37	288	1
TAP	37	288	5
TAP	38	0	7
TAP	38	48	3
TAP	38	96	1
TAP	38	96	5
TAP	38	192	1
TAP	38	192	4
TAP	38	240	3
TAP	38	240	6
TAP	38	288	2
TAP	38	288	5
TAP	39	0	0
TAP	39	0	7
BRK	39	48	1
BRK	39	48	6
TAP	39	192	2
TAP	39	192	7
TAP	39	240	1
TAP	39	288	5
TAP	39	336	4
TAP	40	0	3
TAP	40	0	6
TAP	40	96	0
TAP	40	96	5
TAP	40	144	6
TAP	40	192	2
TAP	40	240	3
TAP	40	288	1
TAP	40	288	4
TAP	41	0	2
TAP	41	0	5
TAP	41	96	0
TAP	41	96	6
TAP	41	144	1
TAP	41	144	5
TAP	41	192	2
TAP	41	192	4
TAP	41	240	3
TAP	41	240	7
TAP	41	288	1
TAP	41	288	5
TAP	42	0	1
TAP	42	0	7
TAP	42	48	2
TAP	42	48	6
TAP	42	96	3
TAP	42	96	5
TAP	42	144	0
TAP	42	144	4
TAP	42	192	2
TAP	42	192	6
TAP	42	288	0
TAP	42	288	4
TAP	42	336	2
TAP	42	336	6
TAP	43	0	1
TAP	43	0	5
HLD	43	48	3	768
HLD	43	48	7	768
TAP	46	336	0
TAP	46	336	7
TAP	47	48	2
TAP	47	48	6
TAP	47	80	5
TAP	47	112	4
TAP	47	144	3
TAP	47	144	7
TAP	47	176	2
TAP	47	208	1
TAP	47	240	0
TAP	47	240	4
TAP	47	272	7
TAP	47	304	6
BRK	47	336	1
BRK	47	336	5
TAP	48	144	1
TAP	48	144	6
TAP	48	192	2
TAP	48	216	3
TAP	48	264	1
TAP	48	288	4
TAP	48	312	1
TAP	48	336	4
TAP	49	0	1
TAP	49	48	7
TAP	49	72	0
TAP	49	96	7
TAP	49	144	1
TAP	49	144	6
TAP	49	192	5
TAP	49	216	4
TAP	49	264	6
TAP	49	288	3
TAP	49	312	6
TAP	49	336	3
TAP	50	0	6
TAP	50	48	0
TAP	50	72	7
TAP	50	96	0
TAP	50	120	7
TAP	50	144	1
TAP	50	144	6
TAP	50	192	3
TAP	50	216	4
TAP	50	264	2
TAP	50	288	5
TAP	50	312	2
TAP	50	336	5
TAP	51	0	2
TAP	51	48	7
TAP	51	72	0
TAP	51	96	7
TAP	51	144	2
TAP	51	168	5
TAP	51	192	2
TAP	51	216	5
TAP	51	264	3
TAP	51	288	4
TAP	51	312	3
TAP	51	336	4
TAP	52	0	3
TAP	52	24	4
TAP	52	48	5
TAP	52	72	6
TAP	52	96	7
TAP	52	120	0
TAP	52	144	1
TAP	52	144	5
TAP	52	192	6
TAP	52	216	7
TAP	52	264	5
TAP	52	288	0
TAP	52	312	5
TAP	52	336	0
TAP	53	0	5
TAP	53	48	3
TAP	53	72	4
TAP	53	96	3
TAP	53	144	2
TAP	53	144	6
TAP	53	192	1
TAP	53	216	0
TAP	53	264	2
TAP	53	288	7
TAP	53	312	2
TAP	53	336	7
TAP	54	0	2
TAP	54	48	4
TAP	54	72	3
TAP	54	96	4
TAP	54	120	3
TAP	54	144	2
TAP	54	144	5
TAP	54	192	7
TAP	54	216	0
TAP	54	264	6
TAP	54	288	1
TAP	54	312	6
TAP	54	336	1
TAP	55	0	6
TAP	55	48	3
TAP	55	72	4
TAP	55	96	3
TAP	55	144	5
TAP	55	168	2
TAP	55	192	5
TAP	55	216	2
TAP	55	264	4
TAP	55	288	3
TAP	55	312	4
TAP	55	336	3
TAP	56	0	4
TAP	56	24	3
TAP	56	48	2
TAP	56	72	1
TAP	56	96	0
TAP	56	120	7
TAP	56	144	2
TAP	56	144	6
TAP	56	192	2
TAP	56	216	3
TAP	56	264	1
TAP	56	288	0
TAP	56	312	1
TAP	56	336	0
TAP	57	0	1
TAP	57	48	4
TAP	57	72	3
TAP	57	96	4
TAP	57	144	1
TAP	57	144	5
TAP	57	192	5
TAP	57	216	4
TAP	57	264	6
TAP	57	288	7
TAP	57	312	6
TAP	57	336	7
TAP	58	0	6
TAP	58	48	2
TAP	58	72	5
TAP	58	96	2
TAP	58	120	5
TAP	58	144	3
TAP	58	144	4
TAP	58	192	3
TAP	58	216	4
TAP	58	264	1
TAP	58	288	6
TAP	58	312	1
TAP	58	336	6
TAP	59	0	1
TAP	59	48	7
TAP	59	72	0
TAP	59	96	7
TAP	59	144	2
TAP	59	168	5
TAP	59	192	2
TAP	59	216	5
TAP	59	264	3
TAP	59	288	4
TAP	59	312	3
TAP	59	336	4
TAP	60	0	3
TAP	60	24	4
TAP	60	48	5
TAP	60	72	6
TAP	60	96	7
TAP	60	120	0
TAP	60	144	1
TAP	60	144	5
TAP	60	192	3
TAP	60	216	4
TAP	60	264	2
TAP	60	288	3
TAP	60	312	2
TAP	60	336	1
TAP	60	336	4
TAP	61	0	2
TAP	61	48	5
TAP	61	72	3
TAP	61	96	4
TAP	61	144	2
TAP	61	144	6
TAP	61	192	4
TAP	61	216	3
TAP	61	264	5
TAP	61	288	4
TAP	61	312	5
TAP	61	336	3
TAP	61	336	6
TAP	62	0	5
TAP	62	48	2
TAP	62	72	4
TAP	62	96	3
TAP	62	120	4
TAP	62	144	1
TAP	62	168	2
TAP	62	192	3
TAP	62	216	4
TAP	62	240	5
TAP	62	264	6
TAP	62	288	7
TAP	62	312	0
TAP	62	336	3
TAP	62	360	2
TAP	63	0	1
TAP	63	24	0
TAP	63	48	7
TAP	63	72	6
TAP	63	96	5
TAP	63	120	4
TAP	63	144	3
TAP	63	144	6
TAP	63	168	7
TAP	63	192	0
TAP	63	216	1
TAP	63	240	2
TAP	63	240	5
TAP	63	264	4
TAP	63	288	3
TAP	63	312	2
TAP	63	336	1
TAP	63	336	4
TAP	63	360	5
TAP	64	0	6
TAP	64	24	7
TAP	64	48	0
TAP	64	48	3
TAP	64	72	2
TAP	64	96	1
TAP	64	120	0
TAP	64	144	3
TAP	64	144	7
TAP	64	240	3
TAP	64	240	7
TAP	64	336	1
TAP	64	336	4
TAP	65	48	1
TAP	65	48	4
TAP	65	144	3
TAP	65	144	5
TAP	65	240	3
TAP	65	240	5
TAP	65	336	2
TAP	65	336	4
TAP	66	48	2
TAP	66	48	4
TAP	66	96	3
TAP	66	144	2
TAP	66	144	4
TAP	66	240	3
TAP	66	240	5
TAP	66	336	1
TAP	66	336	3
TAP	67	48	4
TAP	67	48	6
TAP	67	144	2
TAP	67	144	3
TAP	67	216	4
TAP	67	216	5
TAP	67	288	2
TAP	67	288	3
TAP	67	336	3
TAP	67	336	5
TAP	68	0	2
TAP	68	24	4
TAP	68	48	2
TAP	68	96	5
TAP	68	120	3
TAP	68	144	5
TAP	68	192	5
TAP	68	240	3
TAP	68	240	5
TAP	68	288	3
TAP	68	288	5
TAP	68	336	2
TAP	69	0	2
TAP	69	48	2
TAP	69	48	4
TAP	69	96	2
TAP	69	96	4
TAP	69	144	6
TAP	69	144	7
TAP	69	192	6
TAP	69	192	7
TAP	69	240	0
TAP	69	240	1
TAP	69	288	0
TAP	69	288	1
TAP	69	336	1
TAP	69	360	4
TAP	70	0	1
TAP	70	48	6
TAP	70	72	3
TAP	70	96	6
TAP	70	144	2
TAP	70	176	3
TAP	70	208	2
TAP	70	240	1
TAP	70	240	4
TAP	70	304	2
TAP	70	336	5
TAP	70	368	4
TAP	71	16	5
TAP	71	48	3
TAP	71	48	6
TAP	71	112	5
TAP	71	144	0
TAP	71	168	1
TAP	71	192	2
TAP	71	216	3
TAP	71	240	4
TAP	71	264	5
TAP	71	288	6
TAP	71	312	7
TAP	71	336	0
TAP	71	348	1
TAP	71	360	2
TAP	71	372	3
TAP	72	0	4
TAP	72	12	5
TAP	72	24	6
TAP	72	36	7
TAP	72	48	0
TAP	72	60	1
TAP	72	72	2
TAP	72	84	3
TAP	72	96	4
TAP	72	108	5
TAP	72	120	6
TAP	72	132	7
BRK	72	336	0
BRK	72	336	7
TAP	73	48	0
TAP	73	96	7
TAP	73	120	0
TAP	73	144	7
TAP	73	168	0
TAP	73	192	6
TAP	73	216	1
TAP	73	240	4
TAP	73	264	3
TAP	73	288	4
TAP	73	312	3
TAP	73	336	5
TAP	73	360	2
TAP	74	0	5
TAP	74	24	2
TAP	74	48	7
TAP	74	96	0
TAP	74	120	7
TAP	74	144	0
TAP	74	168	7
TAP	74	192	1
TAP	74	216	6
TAP	74	240	3
TAP	74	264	4
TAP	74	288	3
TAP	74	312	4
TAP	74	336	2
TAP	74	360	5
TAP	75	0	2
TAP	75	24	5
TAP	75	48	0
TAP	75	72	4
TAP	75	96	1
TAP	75	120	5
TAP	75	144	2
TAP	75	168	6
TAP	75	192	3
TAP	75	216	7
TAP	75	240	0
TAP	75	264	7
TAP	75	288	1
TAP	75	312	6
TAP	75	336	0
TAP	75	360	7
TAP	76	0	1
TAP	76	24	6
TAP	76	48	0
TAP	76	72	1
TAP	76	96	2
TAP	76	120	3
TAP	76	144	0
TAP	76	168	7
TAP	76	192	6
TAP	76	216	5
TAP	76	240	2
TAP	76	264	3
TAP	76	288	4
TAP	76	312	5
TAP	76	336	6
TAP	76	360	7
TAP	77	0	0
TAP	77	24	1
TAP	77	48	5
TAP	77	96	3
TAP	77	120	4
TAP	77	144	3
TAP	77	168	4
TAP	77	192	2
TAP	77	216	5
TAP	77	240	0
TAP	77	264	7
TAP	77	288	0
TAP	77	312	7
TAP	77	336	1
TAP	77	360	6
TAP	78	0	1
TAP	78	24	6
TAP	78	48	3
TAP	78	96	4
TAP	78	120	2
TAP	78	144	4
TAP	78	168	2
TAP	78	192	5
TAP	78	216	1
TAP	78	240	7
TAP	78	264	0
TAP	78	288	7
TAP	78	312	0
TAP	78	336	6
TAP	78	360	1
TAP	79	0	6
TAP	79	24	1
TAP	79	48	7
TAP	79	72	3
TAP	79	96	6
TAP	79	120	2
TAP	79	144	5
TAP	79	168	1
TAP	79	192	4
TAP	79	216	0
TAP	79	240	5
TAP	79	264	2
TAP	79	288	4
TAP	79	312	3
TAP	79	336	5
TAP	79	360	2
TAP	80	0	4
TAP	80	24	3
TAP	80	48	7
TAP	80	72	6
TAP	80	96	5
TAP	80	120	4
TAP	80	144	7
TAP	80	168	0
TAP	80	192	1
TAP	80	216	2
TAP	80	240	5
TAP	80	264	4
TAP	80	288	3
TAP	80	312	2
TAP	80	336	1
TAP	80	360	0
TAP	81	0	7
TAP	81	24	6
TAP	81	48	0
TAP	81	72	1
TAP	81	96	2
TAP	81	120	3
TAP	81	144	7
TAP	81	176	7
TAP	81	208	7
TAP	81	240	4
TAP	81	264	3
TAP	81	288	2
TAP	81	312	1
TAP	81	336	5
TAP	81	368	5
TAP	82	16	5
TAP	82	48	0
TAP	82	80	0
TAP	82	112	0
TAP	82	144	6
TAP	82	168	5
TAP	82	192	4
TAP	82	216	3
TAP	82	240	2
TAP	82	264	1
TAP	82	288	0
TAP	82	312	7
TAP	82	336	3
TAP	82	368	3
TAP	83	16	3
TAP	83	48	7
TAP	83	72	6
TAP	83	96	5
TAP	83	120	4
TAP	83	144	0
TAP	83	176	0
TAP	83	208	0
TAP	83	240	3
TAP	83	264	4
TAP	83	288	5
TAP	83	312	6
TAP	83	336	2
TAP	83	368	2
TAP	84	16	2
TAP	84	48	5
TAP	84	72	6
TAP	84	96	7
TAP	84	120	0
TAP	84	144	1
TAP	84	168	2
TAP	84	192	3
TAP	84	216	4
TAP	84	240	0
TAP	84	264	7
TAP	84	288	6
TAP	84	312	5
TAP	84	336	4
TAP	84	360	3
TAP	85	0	2
TAP	85	24	1
TAP	85	48	7
TAP	85	72	6
TAP	85	96	5
TAP	85	120	4
TAP	85	144	0
TAP	85	176	0
TAP	85	208	0
TAP	85	240	3
TAP	85	264	4
TAP	85	288	5
TAP	85	312	6
TAP	85	336	2
TAP	85	368	2
TAP	86	16	2
TAP	86	48	7
TAP	86	80	7
TAP	86	112	7
TAP	86	144	1
TAP	86	168	2
TAP	86	192	3
TAP	86	216	4
TAP	86	240	5
TAP	86	264	6
TAP	86	288	7
TAP	86	312	0
TAP	86	336	4
TAP	86	368	4
TAP	87	16	4
TAP	87	48	0
TAP	87	72	1
TAP	87	96	2
TAP	87	120	3
TAP	87	144	7
TAP	87	176	7
TAP	87	208	7
TAP	87	240	4
TAP	87	264	3
TAP	87	288	2
TAP	87	312	1
TAP	87	336	5
TAP	87	368	5
TAP	88	16	5
TAP	88	48	0
TAP	88	72	1
TAP	88	96	2
TAP	88	120	3
TAP	88	144	4
TAP	88	168	5
TAP	88	192	6
TAP	88	216	7
TAP	88	240	6
TAP	88	252	5
TAP	88	264	4
TAP	88	276	3
TAP	88	288	2
TAP	88	300	1
TAP	88	312	0
TAP	88	324	7
STR	88	336	6
SUL	88	336	6	96	576	3
TAP	88	348	5
TAP	88	360	4
TAP	88	372	3
TAP	89	0	2
TAP	89	12	1
TAP	89	24	0
TAP	89	36	7
BRK	91	48	0
BRK	91	48	7
TAP	92	144	0
TAP	92	144	7
TAP	92	240	1
TAP	92	240	6
TAP	92	336	2
TAP	92	336	5
TAP	93	48	3
TAP	93	48	4
TAP	93	96	3
TAP	93	144	2
TAP	93	144	5
TAP	93	192	5
TAP	93	240	1
TAP	93	240	6
TAP	93	288	1
TAP	93	336	0
TAP	93	336	7
TAP	94	0	7
TAP	94	48	1
TAP	94	72	5
TAP	94	96	2
TAP	94	120	6
TAP	94	144	3
TAP	94	168	7
TAP	94	192	4
TAP	94	216	0
TAP	94	240	1
TAP	94	240	5
TAP	94	264	0
TAP	94	264	4
TAP	94	288	3
TAP	94	288	7
TAP	94	312	2
TAP	94	312	6
STR	94	336	1
SI_	94	336	1	96	192	5
TAP	94	336	5
TAP	94	360	0
TAP	94	360	4
TAP	95	0	3
TAP	95	0	7
TAP	95	24	2
TAP	95	24	6
TAP	95	336	2
STR	95	336	6
SI_	95	336	6	96	48	2
TAP	95	360	3
TAP	95	360	7
TAP	96	0	0
TAP	96	0	4
TAP	96	24	1
TAP	96	24	5

T_REC_TAP	977
T_REC_BRK	10
T_REC_XTP	0
T_REC_HLD	3
T_REC_XHO	0
T_REC_STR	5
T_REC_BST	0
T_REC_XST	0
T_REC_TTP	0
T_REC_THO	0
T_REC_SLD	5
T_REC_ALL	1000
T_NUM_TAP	982
T_NUM_BRK	10
T_NUM_HLD	3
T_NUM_SLD	5
T_NUM_ALL	1000
T_JUDGE_TAP	992
T_JUDGE_HLD	49
T_JUDGE_SLD	5
T_JUDGE_ALL	1046
TTM_EACHPAIRS	157
TTM_SCR_TAP	491000
TTM_SCR_BRK	26000
TTM_SCR_HLD	3000
TTM_SCR_SLD	7500
TTM_SCR_ALL	527500
TTM_SCR_S	510750
TTM_SCR_SS	526500
TTM_RAT_ACV	10018

