VERSION	0.00.00	1.03.00
FES_MODE	0
BPM_DEF	192.000	192.000	192.000	192.000
MET_DEF	4	4
RESOLUTION	384
CLK_DEF	384
COMPATIBLE_CODE	MA2

BPM	0	0	192.000
MET	0	0	4	4

TAP	5	0	0
TAP	5	192	0
TAP	6	0	0
TAP	6	192	0
TAP	7	0	0
TAP	7	96	1
TAP	7	192	2
TAP	7	288	3
TAP	8	0	4
TAP	8	96	5
TAP	8	192	6
TAP	8	288	7
HLD	9	0	0	288
TAP	9	96	7
TAP	9	192	6
TAP	9	288	5
HLD	10	0	7	288
TAP	10	96	0
TAP	10	192	1
TAP	10	288	2
HLD	11	0	3	288
TAP	11	96	4
TAP	11	192	5
TAP	11	288	6
HLD	12	0	4	288
TAP	12	96	3
TAP	12	192	2
TAP	12	288	1
TAP	13	0	1
HLD	13	0	5	288
TAP	13	96	7
TAP	13	192	2
TAP	13	288	0
HLD	14	0	2	288
TAP	14	0	6
TAP	14	96	0
TAP	14	192	5
TAP	14	288	7
TAP	15	0	4
HLD	15	0	5	96
TAP	15	96	1
HLD	15	192	2	96
TAP	15	192	3
TAP	15	288	6
HLD	16	0	6	96
TAP	16	0	7
TAP	16	96	2
TAP	16	192	0
HLD	16	192	1	96
TAP	16	288	5
TAP	17	0	0
TAP	17	96	7
TAP	17	192	1
TAP	17	288	6
TAP	18	0	2
TAP	18	96	5
TAP	18	192	3
TAP	18	192	4
TAP	18	288	3
TAP	18	336	4
TAP	19	0	3
TAP	19	96	2
TAP	19	96	5
TAP	19	192	1
TAP	19	192	6
TAP	19	288	0
TAP	19	288	7
TAP	20	0	5
TAP	20	48	5
TAP	20	96	5
TAP	20	192	2
TAP	20	240	2
TAP	20	288	2
TAP	21	0	7
TAP	21	96	7
TAP	21	192	0
TAP	21	288	0
TAP	22	0	5
TAP	22	96	5
TAP	22	192	2
TAP	22	240	2
TAP	22	288	2
TAP	23	0	4
TAP	23	48	4
TAP	23	96	3
TAP	23	144	3
TAP	23	192	4
TAP	23	240	4
TAP	23	288	3
TAP	23	336	3
TAP	24	0	4
TAP	24	32	4
TAP	24	64	4
TAP	24	96	3
TAP	24	128	3
TAP	24	160	3
TAP	24	192	4
TAP	24	224	4
TAP	24	256	4
TAP	24	288	3
TAP	24	320	3
STR	24	352	3
SCL	24	352	3	96	512	4
BRK	27	0	7
TAP	27	96	6
TAP	27	192	4
TAP	27	240	4
TAP	27	336	5
TAP	28	0	5
TAP	28	96	1
TAP	28	192	3
TAP	28	240	3
TAP	28	336	2
TAP	29	0	2
TAP	29	96	5
TAP	29	192	7
TAP	29	240	7
TAP	29	336	6
TAP	30	0	6
TAP	30	96	2
TAP	30	192	0
TAP	30	240	0
TAP	30	336	1
TAP	31	0	1
TAP	31	96	3
TAP	31	96	6
TAP	31	192	4
TAP	31	240	5
TAP	31	336	4
TAP	32	0	5
TAP	32	96	1
TAP	32	96	4
TAP	32	192	3
TAP	32	240	2
TAP	32	336	3
TAP	33	0	2
TAP	33	96	0
TAP	33	96	5
TAP	33	192	7
TAP	33	240	6
TAP	33	336	7
TAP	34	0	6
TAP	34	96	2
TAP	34	96	7
TAP	34	192	0
TAP	34	240	1
TAP	34	336	0
TAP	35	0	1
STR	35	96	6
SI_	35	96	6	96	48	1
STR	35	240	2
SI_	35	240	2	96	48	5
STR	36	0	6
SI_	36	0	6	96	48	1
STR	36	144	2
SI_	36	144	2	96	48	5
TAP	36	288	6
STR	37	0	7
SI_	37	0	7	96	48	4
STR	37	144	0
SI_	37	144	0	96	48	3
STR	37	288	7
SI_	37	288	7	96	48	4
STR	38	48	0
SI_	38	48	0	96	48	3
TAP	38	192	7
STR	38	288	6
SI_	38	288	6	96	48	3
BRK	39	48	0
STR	39	192	1
SI_	39	192	1	96	48	4
STR	39	336	6
SI_	39	336	6	96	48	3
STR	40	96	0
SI_	40	96	0	96	48	5
STR	40	240	7
SI_	40	240	7	96	48	2
TAP	41	0	0
STR	41	96	1
SI_	41	96	1	96	48	3
STR	41	240	6
SI_	41	240	6	96	48	4
STR	42	0	0
SI_	42	0	0	96	48	4
STR	42	144	7
SI_	42	144	7	96	48	3
TAP	42	288	0
TAP	42	336	0
STR	43	48	7
SCL	43	48	7	96	1200	0
TAP	46	336	1
TAP	46	336	6
TAP	47	48	2
TAP	47	80	2
TAP	47	112	2
TAP	47	144	4
TAP	47	176	4
TAP	47	208	4
TAP	47	240	3
TAP	47	272	3
TAP	47	304	3
BRK	47	336	5
TAP	48	144	0
TAP	48	144	1
TAP	48	240	2
TAP	48	288	3
TAP	49	0	3
TAP	49	48	4
TAP	49	144	6
TAP	49	144	7
TAP	49	240	5
TAP	49	288	4
TAP	50	0	4
TAP	50	48	3
TAP	50	144	2
TAP	50	144	3
TAP	50	240	1
TAP	50	288	0
TAP	51	0	0
TAP	51	48	7
TAP	51	144	4
TAP	51	144	5
TAP	51	240	6
TAP	51	288	7
TAP	52	0	7
TAP	52	48	0
TAP	52	144	2
TAP	52	144	3
TAP	52	240	1
TAP	52	240	4
TAP	52	288	1
TAP	52	288	4
TAP	53	0	5
TAP	53	0	7
TAP	53	48	5
TAP	53	48	7
TAP	53	144	4
TAP	53	144	5
TAP	53	240	3
TAP	53	240	6
TAP	53	288	3
TAP	53	288	6
TAP	54	0	0
TAP	54	0	2
TAP	54	48	0
TAP	54	48	2
TAP	54	144	6
TAP	54	144	7
TAP	54	240	0
TAP	54	240	5
TAP	54	288	0
TAP	54	288	5
TAP	55	0	1
TAP	55	0	3
TAP	55	48	1
TAP	55	48	3
TAP	55	144	0
TAP	55	144	1
TAP	55	240	2
TAP	55	240	7
TAP	55	288	2
TAP	55	288	7
TAP	56	0	4
TAP	56	0	6
TAP	56	48	4
TAP	56	48	6
TAP	56	144	3
HLD	56	144	5	96
TAP	56	240	0
TAP	56	288	0
TAP	57	0	6
TAP	57	0	7
TAP	57	48	0
TAP	57	48	5
HLD	57	144	2	96
TAP	57	144	4
TAP	57	240	7
TAP	57	288	7
TAP	58	0	0
TAP	58	0	1
TAP	58	48	2
TAP	58	48	7
TAP	58	144	0
HLD	58	144	6	96
TAP	58	240	3
TAP	58	288	3
TAP	59	0	4
TAP	59	0	5
TAP	59	48	3
TAP	59	48	6
HLD	59	144	1	96
TAP	59	144	7
TAP	59	240	4
TAP	59	288	4
TAP	60	0	2
TAP	60	0	3
TAP	60	48	1
TAP	60	48	4
TAP	60	144	1
STR	60	240	7
SI_	60	240	7	96	48	3
TAP	60	288	7
STR	61	0	0
SI_	61	0	0	96	48	4
TAP	61	48	0
TAP	61	144	6
STR	61	240	1
SI_	61	240	1	96	48	3
TAP	61	288	1
STR	62	0	6
SI_	62	0	6	96	48	4
TAP	62	48	6
TAP	62	144	2
STR	62	240	0
SI_	62	240	0	96	48	3
TAP	62	288	0
STR	63	0	7
SI_	63	0	7	96	48	4
TAP	63	48	7
TAP	63	144	2
STR	63	240	6
SI_	63	240	6	96	48	1
TAP	63	288	6
STR	64	0	2
SI_	64	0	2	96	48	5
TAP	64	48	2
TAP	64	144	6
HLD	64	240	3	96
HLD	64	336	2	96
HLD	65	48	7	96
HLD	65	144	4	96
HLD	65	240	5	96
HLD	65	336	0	96
BRK	66	48	3
TAP	66	144	4
TAP	66	192	3
TAP	66	240	4
TAP	66	288	3
TAP	66	336	5
TAP	67	0	2
TAP	67	48	4
TAP	67	96	3
TAP	67	144	5
TAP	67	192	2
TAP	67	240	5
TAP	67	288	2
TAP	67	336	4
TAP	68	0	3
BRK	68	48	4
TAP	68	144	1
TAP	68	192	1
TAP	68	240	6
TAP	68	288	6
TAP	68	336	0
TAP	69	0	0
TAP	69	48	7
TAP	69	96	7
TAP	69	144	0
TAP	69	192	7
TAP	69	240	0
TAP	69	288	7
TAP	69	336	0
TAP	70	0	7
TAP	70	48	0
TAP	70	96	7
HLD	70	144	0	96
HLD	70	144	1	96
HLD	70	336	6	96
HLD	70	336	7	96
TAP	71	144	0
TAP	71	168	7
TAP	71	192	0
TAP	71	216	7
TAP	71	240	0
TAP	71	264	7
TAP	71	288	0
TAP	71	312	7
TAP	71	336	0
TAP	71	360	7
TAP	72	0	0
TAP	72	24	7
TAP	72	48	0
TAP	72	72	7
STR	72	96	0
SSL	72	96	0	96	144	4
STR	73	48	6
SI_	73	48	6	96	48	2
STR	73	240	1
SI_	73	240	1	96	48	5
STR	74	48	6
SUL	74	48	6	96	48	2
STR	74	240	1
SUR	74	240	1	96	48	5
STR	75	48	6
SCL	75	48	6	96	48	3
STR	75	240	1
SCR	75	240	1	96	48	4
STR	76	48	6
SV_	76	48	6	96	48	1
STR	76	240	2
SCR	76	240	2	96	72	5
STR	77	48	6
SCR	77	48	6	96	72	1
STR	77	240	5
SV_	77	240	5	96	48	2
STR	78	48	1
SCL	78	48	1	96	72	6
STR	78	240	2
SCR	78	240	2	96	72	5
STR	79	48	7
SCL	79	48	7	96	72	4
TAP	79	144	1
STR	79	240	0
SCR	79	240	0	96	72	3
TAP	79	336	5
STR	80	48	4
SCR	80	48	4	96	72	7
TAP	80	144	2
STR	80	240	3
SCL	80	240	3	96	72	0
TAP	80	336	6
STR	81	48	6
SI_	81	48	6	96	48	3
TAP	81	48	7
TAP	81	144	0
TAP	81	240	0
STR	81	240	1
SI_	81	240	1	96	48	4
TAP	81	336	7
STR	82	48	6
SI_	82	48	6	96	48	2
TAP	82	48	7
TAP	82	144	0
TAP	82	240	0
STR	82	240	1
SI_	82	240	1	96	48	5
TAP	82	336	7
STR	83	48	7
SI_	83	48	7	96	48	4
STR	83	144	0
SI_	83	144	0	96	48	3
STR	83	240	7
SI_	83	240	7	96	48	3
STR	83	336	0
SI_	83	336	0	96	48	4
STR	84	48	7
SI_	84	48	7	96	48	5
STR	84	144	0
SI_	84	144	0	96	48	2
STR	84	240	7
SI_	84	240	7	96	48	4
BRK	84	336	0
STR	85	48	0
SCR	85	48	0	96	96	3
STR	85	144	3
SCR	85	144	3	96	96	6
STR	86	48	7
SCL	86	48	7	96	96	4
STR	86	144	4
SCL	86	144	4	96	96	1
STR	87	48	0
SI_	87	48	0	96	96	3
STR	87	144	3
SI_	87	144	3	96	96	6
STR	88	48	7
SI_	88	48	7	96	96	3
STR	88	144	3
SCL	88	144	3	96	816	4
BRK	91	48	3
TAP	91	240	3
TAP	91	240	4
TAP	92	48	2
TAP	92	48	5
TAP	92	144	2
TAP	92	144	5
TAP	92	240	1
TAP	92	240	6
TAP	92	336	1
TAP	92	336	6
TAP	93	48	0
TAP	93	96	7
TAP	93	144	0
TAP	93	192	7
TAP	93	240	0
TAP	93	288	7
TAP	93	336	0
TAP	94	0	7
TAP	94	48	0
TAP	94	72	7
TAP	94	96	0
TAP	94	120	7
TAP	94	144	0
TAP	94	168	7
TAP	94	192	0
TAP	94	216	7
TAP	94	240	0
TAP	94	264	7
TAP	94	288	0
TAP	94	312	7
TAP	94	336	0
TAP	94	360	7
TAP	95	0	0
TAP	95	24	7
TAP	95	336	1
TAP	95	336	6
STR	96	48	1
SUL	96	48	1	96	816	2
STR	96	48	6
SUR	96	48	6	96	816	5

T_REC_TAP	348
T_REC_BRK	7
T_REC_XTP	0
T_REC_HLD	24
T_REC_XHO	0
T_REC_STR	65
T_REC_BST	0
T_REC_XST	0
T_REC_TTP	0
T_REC_THO	0
T_REC_SLD	65
T_REC_ALL	509
T_NUM_TAP	413
T_NUM_BRK	7
T_NUM_HLD	24
T_NUM_SLD	65
T_NUM_ALL	509
T_JUDGE_TAP	420
T_JUDGE_HLD	72
T_JUDGE_SLD	65
T_JUDGE_ALL	557
TTM_EACHPAIRS	64
TTM_SCR_TAP	206500
TTM_SCR_BRK	18200
TTM_SCR_HLD	24000
TTM_SCR_SLD	97500
TTM_SCR_ALL	346200
TTM_SCR_S	335150
TTM_SCR_SS	345500
TTM_RAT_ACV	10020

