VERSION	0.00.00	1.03.00
FES_MODE	0
BPM_DEF	192.000	192.000	192.000	192.000
MET_DEF	4	4
RESOLUTION	384
CLK_DEF	384
COMPATIBLE_CODE	MA2

BPM	0	0	192.000
MET	0	0	4	4

TAP	5	0	0
TAP	5	192	0
TAP	6	0	2
TAP	6	192	2
TAP	7	0	4
TAP	7	192	4
TAP	8	0	6
TAP	8	192	6
HLD	9	0	0	192
HLD	10	0	7	192
TAP	11	0	0
TAP	11	96	0
TAP	11	192	0
TAP	12	0	7
TAP	12	96	7
TAP	12	192	7
TAP	13	0	0
TAP	13	96	1
TAP	13	192	2
TAP	14	0	7
TAP	14	96	6
TAP	14	192	5
TAP	15	0	2
TAP	15	96	3
TAP	15	192	4
TAP	16	0	5
TAP	16	96	4
TAP	16	192	3
TAP	16	288	1
TAP	16	288	6
TAP	17	0	7
TAP	17	96	7
TAP	17	192	3
TAP	17	288	3
TAP	18	0	6
TAP	18	96	6
TAP	18	192	2
TAP	18	288	2
TAP	19	0	5
TAP	19	96	5
TAP	19	192	1
TAP	19	288	1
TAP	20	0	4
TAP	20	96	4
TAP	20	192	0
TAP	20	288	0
TAP	21	0	0
TAP	21	96	1
TAP	21	192	2
TAP	21	288	3
TAP	22	0	7
TAP	22	96	6
TAP	22	192	5
TAP	22	288	4
TAP	23	0	3
TAP	23	96	4
TAP	23	192	2
TAP	23	288	5
TAP	24	0	1
TAP	24	0	6
TAP	24	96	1
TAP	24	96	6
TAP	24	192	0
TAP	24	192	7
STR	24	288	0
SCR	24	288	0	96	576	3
STR	24	288	7
SCL	24	288	7	96	576	4
TAP	27	96	3
TAP	27	192	3
TAP	27	288	2
TAP	27	288	4
TAP	28	96	4
TAP	28	192	4
TAP	28	288	3
TAP	28	288	5
TAP	29	96	2
TAP	29	192	2
TAP	29	288	1
TAP	29	288	3
TAP	30	96	5
TAP	30	192	5
TAP	30	288	4
TAP	30	288	6
TAP	31	0	5
TAP	31	96	2
TAP	31	192	3
TAP	31	288	1
TAP	31	288	4
TAP	32	96	5
TAP	32	192	4
TAP	32	288	3
TAP	32	288	6
TAP	33	96	3
TAP	33	192	4
TAP	33	288	2
TAP	34	0	5
TAP	34	96	1
TAP	34	192	6
TAP	34	288	0
TAP	35	0	7
STR	35	96	0
SSL	35	96	0	96	480	4
STR	37	0	7
SSR	37	0	7	96	480	3
TAP	39	48	1
TAP	39	48	6
STR	39	192	1
SUL	39	192	1	96	480	6
STR	41	96	5
SUL	41	96	5	96	480	2
BRK	43	48	0
BRK	43	48	7
TAP	43	192	1
TAP	43	288	2
TAP	44	0	3
TAP	44	96	4
TAP	44	192	5
TAP	44	288	6
STR	45	0	7
SCR	45	0	7	96	576	4
TAP	47	48	0
TAP	47	144	7
TAP	47	240	1
TAP	47	240	6
BRK	47	336	0
BRK	47	336	7
TAP	48	144	1
TAP	48	240	0
TAP	48	336	1
TAP	49	48	0
TAP	49	48	1
TAP	49	144	6
TAP	49	240	7
TAP	49	336	6
TAP	50	48	6
TAP	50	48	7
TAP	50	144	0
TAP	50	240	7
TAP	50	336	0
TAP	51	48	1
TAP	51	48	6
TAP	51	144	6
TAP	51	144	7
TAP	51	240	4
TAP	51	240	5
TAP	51	336	2
TAP	51	336	3
TAP	52	48	0
TAP	52	48	1
TAP	52	144	2
TAP	52	240	3
TAP	52	336	2
TAP	53	48	4
TAP	53	48	5
TAP	53	144	5
TAP	53	240	4
TAP	53	336	5
TAP	54	48	2
TAP	54	48	3
TAP	54	144	3
TAP	54	240	4
TAP	54	336	3
TAP	55	48	4
TAP	55	144	3
TAP	55	144	4
TAP	55	240	2
TAP	55	240	5
TAP	55	336	1
TAP	55	336	6
BRK	56	48	0
BRK	56	48	7
TAP	56	144	0
TAP	56	240	1
HLD	56	336	2	96
TAP	57	144	7
TAP	57	240	6
HLD	57	336	5	96
TAP	58	144	0
TAP	58	240	1
HLD	58	336	2	96
TAP	59	48	3
TAP	59	144	7
TAP	59	240	6
HLD	59	336	5	96
TAP	60	48	4
HLD	60	144	2	288
TAP	60	240	3
TAP	60	336	3
TAP	61	48	3
HLD	61	144	5	288
TAP	61	240	4
TAP	61	336	4
TAP	62	48	4
TAP	62	144	2
TAP	62	240	1
TAP	62	336	0
BRK	63	48	7
TAP	63	144	5
TAP	63	240	6
TAP	63	336	7
BRK	64	48	0
STR	64	144	7
SUL	64	144	7	96	480	4
TAP	66	144	3
TAP	66	336	2
TAP	67	144	1
TAP	67	336	0
STR	68	144	0
SUR	68	144	0	96	480	3
TAP	70	144	4
TAP	70	240	4
TAP	70	336	5
TAP	71	48	5
TAP	71	144	6
TAP	71	240	6
TAP	71	336	7
BRK	72	48	7
TAP	72	336	0
TAP	72	336	7
TAP	73	48	2
TAP	73	48	3
TAP	73	144	2
TAP	73	144	3
TAP	73	240	1
TAP	73	240	4
TAP	73	336	2
TAP	73	336	3
TAP	74	48	4
TAP	74	48	5
TAP	74	144	4
TAP	74	144	5
TAP	74	240	3
TAP	74	240	6
TAP	74	336	4
TAP	74	336	5
TAP	75	48	2
TAP	75	48	3
TAP	75	144	4
TAP	75	144	5
TAP	75	240	2
TAP	75	240	3
TAP	75	336	4
TAP	75	336	5
TAP	76	48	1
TAP	76	48	2
TAP	76	144	5
TAP	76	144	6
TAP	76	240	2
TAP	76	240	3
BRK	76	336	4
BRK	76	336	5
TAP	77	48	2
TAP	77	96	2
TAP	77	240	5
TAP	77	288	5
TAP	78	48	3
TAP	78	96	3
TAP	78	240	4
TAP	78	288	4
TAP	79	48	2
TAP	79	48	3
TAP	79	96	2
TAP	79	96	3
TAP	79	240	4
TAP	79	240	5
TAP	79	288	4
TAP	79	288	5
TAP	80	48	0
TAP	80	48	1
TAP	80	96	0
TAP	80	96	1
TAP	80	240	6
TAP	80	240	7
TAP	80	288	6
TAP	80	288	7
TAP	81	48	0
TAP	81	144	1
TAP	81	240	2
TAP	81	336	3
TAP	82	48	7
TAP	82	144	6
TAP	82	240	5
TAP	82	336	4
TAP	83	48	3
TAP	83	48	4
TAP	83	144	2
TAP	83	144	5
TAP	83	240	1
TAP	83	240	6
TAP	83	336	0
TAP	83	336	7
TAP	84	48	0
TAP	84	48	7
TAP	84	144	1
TAP	84	144	7
TAP	84	240	2
TAP	84	240	7
TAP	84	336	3
TAP	84	336	7
TAP	85	48	3
TAP	85	144	2
TAP	85	240	1
TAP	85	336	0
TAP	86	48	7
TAP	86	144	6
TAP	86	240	5
TAP	86	336	4
TAP	87	48	0
TAP	87	48	4
TAP	87	144	1
TAP	87	144	5
TAP	87	240	2
TAP	87	240	6
TAP	87	336	3
TAP	87	336	7
TAP	88	48	3
TAP	88	48	7
TAP	88	144	2
TAP	88	144	6
TAP	88	240	1
TAP	88	240	5
STR	88	336	0
SCR	88	336	0	96	576	3
STR	88	336	4
SCR	88	336	4	96	576	7
HLD	91	48	2	384
HLD	92	48	5	288
TAP	93	48	3
TAP	93	48	4
TAP	93	144	2
TAP	93	144	5
TAP	93	240	1
TAP	93	240	6
TAP	93	336	0
TAP	93	336	7
TAP	94	48	0
TAP	94	144	7
STR	94	240	0
SI_	94	240	0	96	192	4
STR	94	240	7
SI_	94	240	7	96	192	3
BRK	96	48	1
BRK	96	48	6

T_REC_TAP	295
T_REC_BRK	13
T_REC_XTP	0
T_REC_HLD	10
T_REC_XHO	0
T_REC_STR	13
T_REC_BST	0
T_REC_XST	0
T_REC_TTP	0
T_REC_THO	0
T_REC_SLD	13
T_REC_ALL	344
T_NUM_TAP	308
T_NUM_BRK	13
T_NUM_HLD	10
T_NUM_SLD	13
T_NUM_ALL	344
T_JUDGE_TAP	321
T_JUDGE_HLD	42
T_JUDGE_SLD	13
T_JUDGE_ALL	376
TTM_EACHPAIRS	75
TTM_SCR_TAP	154000
TTM_SCR_BRK	33800
TTM_SCR_HLD	10000
TTM_SCR_SLD	19500
TTM_SCR_ALL	217300
TTM_SCR_S	209550
TTM_SCR_SS	216000
TTM_RAT_ACV	10060

