VERSION	0.00.00	1.03.00
FES_MODE	0
BPM_DEF	192.000	192.000	192.000	192.000
MET_DEF	4	4
RESOLUTION	384
CLK_DEF	384
COMPATIBLE_CODE	MA2

BPM	0	0	192.000
MET	0	0	4	4

STR	5	0	0
SI_	5	0	0	96	288	3
STR	7	0	4
SI_	7	0	4	96	288	7
TAP	9	0	1
TAP	9	192	1
TAP	10	0	1
TAP	11	0	3
TAP	11	192	3
TAP	12	0	3
TAP	13	0	5
TAP	13	192	5
TAP	14	0	5
TAP	15	0	7
TAP	15	192	7
BRK	16	0	7
TAP	17	0	6
TAP	17	192	6
TAP	18	0	5
TAP	18	0	6
TAP	19	0	4
TAP	19	192	4
TAP	20	0	3
TAP	20	0	4
TAP	21	0	2
TAP	21	192	2
TAP	22	0	1
TAP	22	0	2
TAP	23	0	0
TAP	23	192	0
STR	24	0	0
SI_	24	0	0	96	288	3
STR	24	0	7
SI_	24	0	7	96	288	4
TAP	27	96	3
TAP	27	288	3
TAP	28	96	2
TAP	28	288	2
TAP	29	96	1
TAP	29	288	1
TAP	30	96	0
TAP	30	288	0
TAP	31	96	7
TAP	31	288	7
TAP	32	96	6
TAP	32	288	6
TAP	33	96	5
TAP	33	288	5
TAP	34	96	4
TAP	34	288	4
STR	35	96	3
SI_	35	96	3	96	288	0
STR	37	0	4
SI_	37	0	4	96	288	7
STR	39	192	1
SI_	39	192	1	96	288	6
STR	41	96	5
SI_	41	96	5	96	288	2
STR	43	0	3
SI_	43	0	3	96	672	0
STR	43	0	4
SI_	43	0	4	96	672	7
TAP	47	48	0
TAP	47	144	0
BRK	47	240	0
TAP	48	144	7
TAP	48	240	7
TAP	49	144	6
TAP	49	240	6
TAP	50	144	5
TAP	50	240	5
TAP	51	144	4
TAP	51	240	4
TAP	52	144	3
TAP	52	240	3
TAP	53	144	2
TAP	53	240	2
TAP	54	144	1
TAP	54	240	1
TAP	55	144	0
BRK	55	240	0
HLD	56	144	1	96
HLD	57	144	0	96
HLD	58	144	7	96
HLD	59	144	6	96
TAP	60	144	5
TAP	60	240	5
TAP	60	336	5
TAP	61	144	4
TAP	61	240	4
TAP	61	336	4
TAP	62	144	3
TAP	62	240	3
TAP	62	336	3
TAP	63	144	2
TAP	63	240	2
BRK	63	336	2
TAP	64	144	0
TAP	64	144	1
TAP	64	336	0
TAP	64	336	1
TAP	65	144	6
TAP	65	144	7
TAP	65	336	6
TAP	65	336	7
TAP	66	144	4
TAP	66	144	5
TAP	66	336	4
TAP	66	336	5
TAP	67	144	2
TAP	67	144	3
TAP	67	336	2
TAP	67	336	3
TAP	68	144	3
TAP	68	144	4
TAP	68	336	3
TAP	68	336	4
TAP	69	144	2
TAP	69	144	5
TAP	69	336	2
TAP	69	336	5
TAP	70	144	1
TAP	70	144	6
TAP	70	336	1
TAP	70	336	6
TAP	71	144	0
TAP	71	144	7
BRK	71	336	0
BRK	71	336	7
TAP	73	48	0
TAP	73	144	0
TAP	73	240	1
TAP	74	48	7
TAP	74	144	7
TAP	74	240	6
TAP	75	48	4
TAP	75	144	4
TAP	75	240	5
TAP	76	48	3
TAP	76	144	3
BRK	76	240	2
TAP	77	48	1
TAP	77	144	0
TAP	77	240	1
TAP	78	48	6
TAP	78	144	7
TAP	78	240	6
TAP	79	48	5
TAP	79	144	4
TAP	79	240	5
TAP	80	48	2
TAP	80	144	3
BRK	80	240	2
HLD	81	48	2	96
TAP	81	240	2
HLD	82	48	3	96
TAP	82	240	3
HLD	83	48	4	96
TAP	83	240	4
HLD	84	48	5	96
TAP	84	240	5
HLD	85	48	3	96
HLD	85	48	4	96
TAP	85	240	3
TAP	85	240	4
HLD	86	48	2	96
HLD	86	48	5	96
TAP	86	240	2
TAP	86	240	5
HLD	87	48	1	96
HLD	87	48	6	96
TAP	87	240	1
TAP	87	240	6
HLD	88	48	0	96
HLD	88	48	7	96
STR	88	240	0
SI_	88	240	0	96	288	3
STR	88	240	7
SI_	88	240	7	96	288	4
TAP	91	48	3
TAP	91	48	4
TAP	92	48	2
TAP	92	48	5
TAP	93	48	1
TAP	93	48	6
TAP	93	240	1
TAP	93	240	6
TAP	94	48	0
TAP	94	144	0
TAP	94	240	7
HLD	94	336	7	480

T_REC_TAP	142
T_REC_BRK	8
T_REC_XTP	0
T_REC_HLD	17
T_REC_XHO	0
T_REC_STR	12
T_REC_BST	0
T_REC_XST	0
T_REC_TTP	0
T_REC_THO	0
T_REC_SLD	12
T_REC_ALL	191
T_NUM_TAP	154
T_NUM_BRK	8
T_NUM_HLD	17
T_NUM_SLD	12
T_NUM_ALL	191
T_JUDGE_TAP	162
T_JUDGE_HLD	42
T_JUDGE_SLD	12
T_JUDGE_ALL	216
TTM_EACHPAIRS	33
TTM_SCR_TAP	77000
TTM_SCR_BRK	20800
TTM_SCR_HLD	17000
TTM_SCR_SLD	18000
TTM_SCR_ALL	132800
TTM_SCR_S	128050
TTM_SCR_SS	132000
TTM_RAT_ACV	10060

