VERSION	0.00.00	1.03.00
FES_MODE	0
BPM_DEF	165.000	165.000	165.000	165.000
MET_DEF	4	4
RESOLUTION	384
CLK_DEF	288
COMPATIBLE_CODE	MA2

BPM	0	0	165.000
MET	0	0	4	3

TAP	1	192	1
TAP	1	192	5
TAP	1	264	1
TAP	1	336	1
TAP	2	0	1
TAP	2	96	1
TAP	2	96	6
TAP	2	168	1
TAP	2	240	1
TAP	2	256	0
TAP	2	272	1
TAP	2	288	0
TAP	3	0	0
TAP	3	0	7
TAP	3	72	0
TAP	3	144	0
TAP	3	192	0
TAP	3	288	0
TAP	3	360	0
TAP	4	48	0
TAP	4	64	7
TAP	4	80	0
TAP	4	96	7
TAP	4	192	0
TAP	4	192	6
TAP	4	264	6
TAP	4	336	6
TAP	5	0	6
TAP	5	96	6
TAP	5	168	6
TAP	5	240	6
TAP	5	256	7
TAP	5	272	6
TAP	5	288	7
TAP	6	0	7
TAP	6	72	7
TAP	6	144	7
TAP	6	192	7
TAP	6	288	7
TAP	6	360	7
TAP	7	48	7
TAP	7	64	0
TAP	7	80	7
TAP	7	96	0
TAP	7	192	1
TAP	7	264	1
TAP	7	336	1
TAP	8	0	1
TAP	8	96	1
TAP	8	168	1
TAP	8	240	1
TAP	8	256	0
TAP	8	272	1
TAP	8	288	2
TAP	9	0	6
TAP	9	72	6
TAP	9	144	6
TAP	9	192	6
TAP	9	288	6
TAP	9	360	6
TAP	10	48	6
TAP	10	64	7
TAP	10	80	6
TAP	10	96	5
TAP	10	192	0
TAP	10	264	0
TAP	10	336	0
TAP	11	0	0
TAP	11	96	0
TAP	11	168	0
TAP	11	240	0
TAP	11	256	7
TAP	11	272	0
TAP	11	288	1
TAP	12	0	7
TAP	12	72	7
TAP	12	144	7
TAP	12	192	7
TAP	12	288	7
TAP	12	360	7
TAP	13	48	7
TAP	13	64	0
TAP	13	80	7
TAP	13	96	6
STR	13	192	7
SUL	13	192	7	96	384	4
TAP	14	288	1
TAP	14	336	2
STR	15	0	0
SI_	15	0	0	96	144	4
TAP	15	0	3
STR	15	288	1
SI_	15	288	1	96	144	5
TAP	15	288	2
STR	16	192	0
SI_	16	192	0	96	144	3
TAP	16	192	7
TAP	17	0	6
TAP	17	48	5
TAP	17	96	4
STR	17	96	7
SI_	17	96	7	96	144	3
TAP	17	240	2
HLD	18	0	1	192
HLD	18	0	6	192
TAP	18	288	0
TAP	18	288	1
TAP	19	0	6
TAP	19	0	7
TAP	19	96	0
TAP	19	96	7
STR	19	192	0
SI_	19	192	0	96	48	4
TAP	19	192	6
TAP	19	288	0
TAP	19	336	6
TAP	20	0	4
STR	20	96	4
SI_	20	96	4	96	48	1
TAP	20	96	6
TAP	20	192	4
TAP	20	240	6
TAP	20	288	1
STR	21	0	1
SI_	21	0	1	96	48	5
TAP	21	0	6
TAP	21	96	1
TAP	21	144	6
TAP	21	192	5
STR	21	288	5
SI_	21	288	5	96	48	2
TAP	21	288	6
TAP	22	0	5
TAP	22	48	6
TAP	22	96	2
TAP	22	96	6
TAP	22	192	0
TAP	22	192	6
STR	22	264	1
SI_	22	264	1	96	48	5
STR	22	264	7
SI_	22	264	7	96	48	3
TAP	22	336	1
TAP	22	336	7
TAP	23	96	2
TAP	23	96	7
STR	23	168	0
SI_	23	168	0	96	48	4
STR	23	168	6
SI_	23	168	6	96	48	2
TAP	23	240	0
TAP	23	240	6
TAP	24	0	1
TAP	24	0	6
STR	24	72	0
SI_	24	72	0	96	48	4
STR	24	72	7
SI_	24	72	7	96	48	3
TAP	24	144	0
TAP	24	144	7
STR	24	288	0
SCR	24	288	0	96	48	3
STR	24	288	4
SCR	24	288	4	96	48	7
STR	25	0	0
SUL	25	0	0	96	48	4
STR	25	0	4
SUL	25	0	4	96	48	0
BRK	25	96	0
BRK	25	96	4
TAP	25	192	0
TAP	25	192	7
TAP	25	240	1
TAP	25	240	6
STR	25	288	0
SI_	25	288	0	96	24	4
TAP	25	288	7
TAP	25	312	1
TAP	25	312	6
TAP	25	336	2
TAP	25	336	5
TAP	26	96	6
TAP	26	96	7
TAP	26	144	0
TAP	26	144	5
TAP	26	192	6
STR	26	192	7
SI_	26	192	7	96	24	3
TAP	26	216	0
TAP	26	216	5
TAP	26	240	1
TAP	26	240	4
TAP	27	0	0
TAP	27	0	1
TAP	27	48	2
TAP	27	48	7
STR	27	96	0
SI_	27	96	0	96	24	4
TAP	27	96	1
TAP	27	120	2
TAP	27	120	7
TAP	27	144	3
TAP	27	144	6
TAP	27	288	0
TAP	27	288	7
TAP	27	336	1
TAP	27	336	6
TAP	28	0	0
STR	28	0	7
SI_	28	0	7	96	24	2
TAP	28	24	1
TAP	28	24	6
STR	28	48	2
SI_	28	48	2	96	24	5
TAP	28	48	5
TAP	28	192	6
TAP	28	192	7
TAP	28	240	0
TAP	28	240	5
STR	28	288	6
SI_	28	288	6	96	24	2
TAP	28	288	7
TAP	28	312	0
TAP	28	312	5
TAP	28	336	1
TAP	28	336	4
TAP	29	96	0
TAP	29	96	1
TAP	29	144	2
TAP	29	144	7
TAP	29	192	0
STR	29	192	1
SI_	29	192	1	96	24	5
TAP	29	216	2
TAP	29	216	7
TAP	29	240	3
TAP	29	240	6
TAP	30	0	0
STR	30	0	6
SI_	30	0	6	96	24	3
TAP	30	48	6
STR	30	96	0
SI_	30	96	0	96	24	3
TAP	30	96	6
TAP	30	144	0
TAP	30	192	0
TAP	30	192	6
TAP	30	240	6
TAP	30	288	1
TAP	30	288	6
TAP	30	360	5
TAP	30	360	7
TAP	31	48	1
TAP	31	48	6
TAP	31	96	5
TAP	31	96	6
STR	32	96	0
SCR	32	96	0	96	48	3
STR	32	96	4
SCR	32	96	4	96	48	7
STR	32	192	0
SI_	32	192	0	96	48	4
TAP	32	192	4
TAP	32	288	0
TAP	32	336	2
TAP	32	360	3
TAP	33	0	2
TAP	33	48	5
TAP	33	96	0
TAP	33	112	1
TAP	33	128	2
TAP	33	144	3
TAP	33	192	6
TAP	33	240	7
STR	33	288	3
SCL	33	288	3	96	48	0
STR	33	288	7
SCL	33	288	7	96	48	4
TAP	34	0	3
STR	34	0	7
SI_	34	0	7	96	48	3
TAP	34	96	7
TAP	34	144	6
TAP	34	168	5
TAP	34	192	4
TAP	34	240	1
TAP	34	288	3
TAP	34	336	0
TAP	35	0	7
TAP	35	16	6
TAP	35	32	5
TAP	35	48	4
STR	35	96	2
SCL	35	96	2	96	48	7
STR	35	96	6
SCL	35	96	6	96	48	3
TAP	35	192	2
STR	35	192	6
SI_	35	192	6	96	48	2
TAP	35	288	6
TAP	35	336	5
TAP	35	360	4
TAP	36	0	5
TAP	36	48	6
TAP	36	96	7
TAP	36	112	0
TAP	36	128	1
TAP	36	144	2
TAP	36	192	6
TAP	36	240	7
STR	36	288	1
SCR	36	288	1	96	48	4
STR	36	288	5
SCR	36	288	5	96	48	0
STR	37	0	1
SI_	37	0	1	96	48	5
TAP	37	0	5
TAP	37	96	1
TAP	37	144	2
TAP	37	168	3
TAP	37	192	4
TAP	37	240	6
TAP	37	288	0
TAP	37	304	7
TAP	37	320	6
TAP	37	336	5
TAP	38	48	2
TAP	38	96	4
TAP	38	144	5
TAP	38	192	2
TAP	38	192	5
TAP	38	240	4
TAP	38	288	5
TAP	38	336	2
TAP	38	336	5
TAP	39	0	7
TAP	39	16	0
TAP	39	32	1
TAP	39	48	2
TAP	39	96	0
TAP	39	112	1
TAP	39	128	2
TAP	39	144	3
TAP	39	192	3
TAP	39	192	4
TAP	39	240	3
TAP	39	240	4
TAP	39	288	2
TAP	39	336	6
TAP	40	0	0
TAP	40	0	7
TAP	40	48	2
TAP	40	96	6
TAP	40	144	0
TAP	40	144	7
TAP	40	192	4
TAP	40	240	2
TAP	40	288	1
TAP	40	288	7
TAP	40	336	4
TAP	41	0	0
TAP	41	0	7
TAP	41	96	3
TAP	41	144	2
TAP	41	192	2
TAP	41	192	5
TAP	41	240	3
TAP	41	288	2
TAP	41	336	2
TAP	41	336	5
TAP	42	0	0
TAP	42	16	7
TAP	42	32	6
TAP	42	48	5
TAP	42	96	7
TAP	42	112	6
TAP	42	128	5
TAP	42	144	4
TAP	42	192	3
TAP	42	192	4
TAP	42	240	3
TAP	42	240	4
TAP	42	288	5
TAP	42	336	1
TAP	43	0	0
TAP	43	0	7
TAP	43	48	5
TAP	43	96	1
TAP	43	144	0
TAP	43	144	7
TAP	43	192	3
TAP	43	240	5
TAP	43	288	0
TAP	43	288	6
TAP	43	336	3
TAP	44	0	0
TAP	44	0	7
TAP	44	192	3
TAP	44	192	7
TAP	44	288	2
TAP	44	288	6
TAP	45	0	1
TAP	45	0	5
STR	45	96	0
SCL	45	96	0	96	48	5
TAP	45	96	4
TAP	45	144	1
STR	45	144	5
SUR	45	144	5	96	48	2
TAP	46	0	3
TAP	46	0	4
TAP	46	96	1
TAP	46	96	6
TAP	46	192	0
TAP	46	192	7
STR	46	288	0
SI_	46	288	0	96	48	3
STR	46	288	7
SI_	46	288	7	96	48	4
TAP	46	336	2
TAP	46	336	5
TAP	47	0	0
TAP	47	0	7
TAP	47	192	0
TAP	47	192	4
TAP	47	288	1
TAP	47	288	5
TAP	48	0	2
TAP	48	0	6
TAP	48	96	3
STR	48	96	7
SCR	48	96	7	96	48	2
STR	48	144	2
SUL	48	144	2	96	48	5
TAP	48	144	6
HLD	48	288	3	192
TAP	49	144	6
TAP	49	168	7
TAP	49	192	6
TAP	49	240	0
TAP	49	256	1
TAP	49	272	2
TAP	49	288	3
TAP	49	336	1
TAP	49	336	6
TAP	50	192	0
TAP	50	192	4
TAP	50	288	1
TAP	50	288	5
TAP	51	0	2
TAP	51	0	6
STR	51	96	3
SCR	51	96	3	96	48	6
TAP	51	96	7
TAP	51	144	2
STR	51	144	6
SUL	51	144	6	96	48	0
TAP	52	0	3
TAP	52	0	4
TAP	52	96	1
TAP	52	96	6
TAP	52	192	0
TAP	52	192	7
STR	52	288	0
SI_	52	288	0	96	48	4
STR	52	288	7
SI_	52	288	7	96	48	3
TAP	52	336	2
TAP	52	336	5
TAP	53	0	0
TAP	53	0	7
TAP	53	192	3
TAP	53	192	7
TAP	53	288	2
TAP	53	288	6
TAP	54	0	1
TAP	54	0	5
TAP	54	96	0
STR	54	96	4
SCL	54	96	4	96	48	1
STR	54	144	1
SUR	54	144	1	96	48	7
TAP	54	144	5
HLD	54	288	3	192
TAP	55	144	7
TAP	55	160	6
TAP	55	176	5
BRK	55	192	4
BRK	55	280	1
TAP	55	288	0
BRK	55	376	7
TAP	56	0	6
STR	56	96	1
SI_	56	96	1	96	48	5
STR	56	144	5
SI_	56	144	5	96	48	1
STR	56	192	1
SCL	56	192	1	96	72	3
TAP	56	240	4
TAP	56	288	4
STR	57	0	6
SI_	57	0	6	96	48	2
STR	57	48	2
SI_	57	48	2	96	48	6
STR	57	96	6
SCR	57	96	6	96	72	4
TAP	57	144	3
TAP	57	192	3
TAP	57	288	0
TAP	57	288	7
TAP	57	336	0
TAP	57	336	7
TAP	57	352	1
TAP	57	352	6
TAP	57	368	2
TAP	57	368	5
TAP	58	0	3
TAP	58	0	4
TAP	58	48	1
TAP	58	48	6
TAP	58	96	3
TAP	58	96	4
TAP	58	144	2
TAP	58	144	5
HLD	58	192	0	96
HLD	58	192	4	96
HLD	58	336	2	96
HLD	58	336	6	96
TAP	59	96	0
TAP	59	96	4
TAP	59	144	1
TAP	59	144	5
STR	59	192	2
SUR	59	192	2	96	48	7
TAP	59	192	6
TAP	59	240	3
STR	59	240	7
SCR	59	240	7	96	48	2
HLD	60	0	5	96
TAP	60	96	2
HLD	60	144	6	96
TAP	60	240	1
TAP	60	288	7
TAP	60	300	0
HLD	60	312	7	120
TAP	61	96	1
TAP	61	144	6
TAP	61	192	0
TAP	61	204	7
HLD	61	216	0	168
TAP	62	0	7
STR	62	96	6
SI_	62	96	6	96	48	2
STR	62	144	2
SI_	62	144	2	96	48	6
STR	62	192	6
SCR	62	192	6	96	72	4
TAP	62	240	3
TAP	62	288	3
STR	63	0	1
SI_	63	0	1	96	48	5
STR	63	48	5
SI_	63	48	5	96	48	1
STR	63	96	1
SCL	63	96	1	96	72	3
TAP	63	144	4
TAP	63	192	4
TAP	63	288	0
TAP	63	288	7
TAP	63	336	0
TAP	63	336	7
TAP	63	352	1
TAP	63	352	6
TAP	63	368	2
TAP	63	368	5
TAP	64	0	3
TAP	64	0	4
TAP	64	48	1
TAP	64	48	6
TAP	64	96	3
TAP	64	96	4
TAP	64	144	2
TAP	64	144	5
HLD	64	192	3	96
HLD	64	192	7	96
HLD	64	336	1	96
HLD	64	336	5	96
TAP	65	96	3
TAP	65	96	7
TAP	65	144	2
TAP	65	144	6
TAP	65	192	1
STR	65	192	5
SUL	65	192	5	96	48	0
STR	65	240	0
SCL	65	240	0	96	48	5
TAP	65	240	4
HLD	66	0	2	96
TAP	66	96	5
HLD	66	144	1	96
TAP	66	240	6
TAP	66	288	0
TAP	66	300	7
HLD	66	312	0	120
TAP	67	96	6
TAP	67	192	3
TAP	67	204	4
HLD	67	216	3	72
HLD	67	288	2	96
TAP	68	0	1
TAP	68	96	6
TAP	68	120	7
TAP	68	144	6
STR	68	192	1
SI_	68	192	1	96	24	4
TAP	68	216	0
TAP	68	240	1
TAP	68	288	1
TAP	69	0	1
TAP	69	24	0
TAP	69	48	1
STR	69	96	6
SI_	69	96	6	96	24	2
TAP	69	120	7
TAP	69	144	6
TAP	69	192	6
TAP	69	288	5
TAP	69	312	4
TAP	69	336	5
STR	70	0	2
SI_	70	0	2	96	24	6
TAP	70	24	3
TAP	70	48	2
TAP	70	96	2
TAP	70	192	2
TAP	70	216	3
TAP	70	240	2
STR	70	288	5
SI_	70	288	5	96	24	1
TAP	70	312	4
TAP	70	336	5
TAP	71	0	5
TAP	71	96	1
TAP	71	96	7
STR	71	168	1
SCR	71	168	1	96	48	4
STR	71	168	7
SCL	71	168	7	96	48	4
TAP	71	240	1
TAP	71	240	7
TAP	72	0	0
TAP	72	0	6
STR	72	72	0
SCR	72	72	0	96	48	3
STR	72	72	6
SCL	72	72	6	96	48	3
TAP	72	144	0
TAP	72	144	6
TAP	72	288	0
TAP	72	288	7
STR	72	360	0
SCR	72	360	0	96	48	3
STR	72	360	7
SCL	72	360	7	96	48	4
TAP	73	48	0
TAP	73	48	7
TAP	73	192	3
TAP	73	192	4
TAP	73	288	0
TAP	73	288	1
TAP	74	0	6
TAP	74	0	7
TAP	74	96	0
TAP	74	96	1
TAP	74	144	2
TAP	74	144	7
TAP	74	192	0
STR	74	192	1
SI_	74	192	1	96	24	6
TAP	74	216	2
TAP	74	216	7
TAP	74	240	3
STR	74	240	6
SI_	74	240	6	96	24	2
TAP	75	0	6
TAP	75	0	7
TAP	75	48	0
TAP	75	48	5
STR	75	96	6
SI_	75	96	6	96	24	1
TAP	75	96	7
TAP	75	120	0
TAP	75	120	5
STR	75	144	1
SI_	75	144	1	96	24	5
TAP	75	144	4
TAP	75	288	0
TAP	75	288	7
TAP	75	336	1
TAP	75	336	6
STR	76	0	0
SI_	76	0	0	96	24	5
TAP	76	0	7
TAP	76	24	1
TAP	76	24	6
TAP	76	48	2
STR	76	48	5
SI_	76	48	5	96	24	2
TAP	76	192	1
TAP	76	192	6
TAP	76	240	2
TAP	76	240	5
STR	76	288	1
SI_	76	288	1	96	24	4
STR	76	288	6
SI_	76	288	6	96	24	3
TAP	76	312	2
TAP	76	312	5
TAP	76	336	3
TAP	76	336	4
BRK	77	0	1
BRK	77	0	6
TAP	77	96	2
TAP	77	96	7
TAP	77	144	1
TAP	77	144	6
STR	77	192	2
SI_	77	192	2	96	24	5
TAP	77	192	7
TAP	77	216	1
TAP	77	216	6
TAP	77	240	0
STR	77	240	5
SI_	77	240	5	96	24	1
TAP	78	0	0
TAP	78	0	5
TAP	78	48	1
TAP	78	48	6
TAP	78	96	0
STR	78	96	5
SI_	78	96	5	96	24	2
TAP	78	120	1
TAP	78	120	6
STR	78	144	2
SI_	78	144	2	96	24	6
TAP	78	144	7
STR	78	288	1
SI_	78	288	1	96	24	4
TAP	78	288	7
TAP	78	336	1
TAP	79	0	1
STR	79	0	7
SI_	79	0	7	96	24	4
TAP	79	48	7
TAP	79	96	1
TAP	79	96	7
TAP	79	144	1
TAP	79	192	1
TAP	79	192	6
TAP	79	264	0
TAP	79	264	2
TAP	79	336	1
TAP	79	336	6
TAP	80	0	1
TAP	80	0	2
TAP	80	96	3
TAP	80	168	4
TAP	80	240	3
TAP	80	288	4
TAP	81	0	0
TAP	81	0	2
TAP	81	72	5
TAP	81	72	7
TAP	81	144	3
TAP	81	144	4
BRK	81	192	1
BRK	81	192	6

T_REC_TAP	563
T_REC_BRK	9
T_REC_XTP	0
T_REC_HLD	21
T_REC_XHO	0
T_REC_STR	92
T_REC_BST	0
T_REC_XST	0
T_REC_TTP	0
T_REC_THO	0
T_REC_SLD	92
T_REC_ALL	777
T_NUM_TAP	655
T_NUM_BRK	9
T_NUM_HLD	21
T_NUM_SLD	92
T_NUM_ALL	777
T_JUDGE_TAP	664
T_JUDGE_HLD	54
T_JUDGE_SLD	92
T_JUDGE_ALL	810
TTM_EACHPAIRS	205
TTM_SCR_TAP	327500
TTM_SCR_BRK	23400
TTM_SCR_HLD	21000
TTM_SCR_SLD	138000
TTM_SCR_ALL	509900
TTM_SCR_S	493750
TTM_SCR_SS	509000
TTM_RAT_ACV	10017

