VERSION	0.00.00	1.03.00
FES_MODE	0
BPM_DEF	165.000	165.000	165.000	165.000
MET_DEF	4	4
RESOLUTION	384
CLK_DEF	288
COMPATIBLE_CODE	MA2

BPM	0	0	165.000
MET	0	0	4	3

HLD	1	192	0	576
HLD	3	0	4	288
HLD	3	288	2	576
HLD	4	192	0	576
HLD	6	0	7	480
HLD	6	288	5	192
TAP	7	192	3
TAP	7	264	4
TAP	7	336	3
TAP	8	0	3
TAP	8	96	4
TAP	8	168	3
TAP	8	240	4
TAP	8	288	4
TAP	9	0	2
TAP	9	72	3
TAP	9	144	2
TAP	9	192	2
TAP	9	288	5
TAP	9	360	4
TAP	10	48	5
TAP	10	96	5
TAP	10	192	0
TAP	10	264	7
TAP	10	336	1
TAP	10	336	6
TAP	11	0	1
TAP	11	0	6
TAP	11	96	7
TAP	11	168	0
TAP	11	240	1
TAP	11	240	6
TAP	11	288	1
TAP	11	288	6
TAP	12	0	2
TAP	12	72	5
TAP	12	144	3
TAP	12	144	4
TAP	12	192	3
TAP	12	192	4
TAP	12	288	0
TAP	12	288	7
TAP	12	360	0
TAP	12	360	7
TAP	13	48	1
TAP	13	48	6
BRK	13	96	0
BRK	13	96	7
HLD	13	192	7	96
TAP	13	288	1
TAP	13	336	0
TAP	14	0	1
HLD	14	96	6	96
TAP	14	192	1
TAP	14	240	2
TAP	14	288	1
HLD	15	0	5	96
TAP	15	96	2
TAP	15	144	3
TAP	15	192	2
HLD	15	288	4	96
TAP	16	0	3
TAP	16	48	4
TAP	16	96	3
HLD	16	192	3	96
TAP	16	288	6
TAP	16	336	7
TAP	17	0	6
HLD	17	96	2	96
TAP	17	192	6
TAP	17	240	5
TAP	17	288	6
HLD	18	0	1	96
TAP	18	96	5
TAP	18	144	4
TAP	18	192	5
BRK	18	288	0
BRK	18	288	4
BRK	19	0	2
BRK	19	0	6
BRK	19	96	0
BRK	19	96	4
TAP	19	192	3
TAP	19	192	7
HLD	19	288	1	96
TAP	20	0	2
TAP	20	96	3
TAP	20	96	7
HLD	20	192	5	96
TAP	20	288	4
TAP	21	0	0
TAP	21	0	4
HLD	21	96	2	96
TAP	21	192	3
TAP	21	288	0
TAP	21	288	4
TAP	22	0	2
TAP	22	0	6
TAP	22	192	2
TAP	22	264	5
TAP	22	336	0
TAP	22	336	7
TAP	23	0	1
TAP	23	0	6
TAP	23	96	5
TAP	23	168	2
TAP	23	240	0
TAP	23	240	7
TAP	23	288	1
TAP	23	288	6
TAP	24	0	0
TAP	24	0	7
TAP	24	72	0
TAP	24	72	7
TAP	24	144	0
TAP	24	144	7
TAP	24	192	1
TAP	24	192	6
TAP	24	288	0
TAP	24	288	7
TAP	25	0	1
TAP	25	0	6
TAP	25	96	2
TAP	25	96	5
STR	25	192	3
SV_	25	192	3	96	192	0
STR	25	192	4
SV_	25	192	4	96	192	7
TAP	27	0	2
TAP	27	0	3
TAP	27	96	2
TAP	27	96	4
TAP	27	192	2
TAP	27	192	5
TAP	27	288	4
TAP	27	288	5
TAP	28	0	3
TAP	28	0	5
TAP	28	96	2
TAP	28	96	5
TAP	28	192	1
TAP	28	192	2
TAP	28	288	0
TAP	28	288	2
TAP	29	0	2
TAP	29	0	7
TAP	29	96	3
TAP	29	96	7
TAP	29	192	4
TAP	29	192	7
TAP	29	288	5
TAP	29	288	7
TAP	30	0	5
TAP	30	0	7
TAP	30	96	0
TAP	30	96	4
TAP	30	192	1
TAP	30	192	3
TAP	30	288	2
TAP	30	360	3
TAP	31	48	1
STR	31	96	1
SSR	31	96	1	96	192	5
HLD	32	96	0	96
HLD	32	192	1	96
HLD	32	288	2	288
TAP	33	0	7
TAP	33	96	6
TAP	33	192	5
HLD	33	288	4	96
HLD	34	0	5	96
HLD	34	96	6	288
TAP	34	192	3
TAP	34	288	2
TAP	35	0	1
HLD	35	96	0	96
HLD	35	192	2	96
HLD	35	288	4	96
TAP	36	0	6
TAP	36	96	5
TAP	36	96	7
TAP	36	192	0
TAP	36	192	4
HLD	36	288	7	96
HLD	37	0	5	96
HLD	37	96	3	96
TAP	37	192	1
TAP	37	288	0
TAP	37	288	2
TAP	38	0	3
TAP	38	0	7
HLD	38	96	6	192
TAP	38	192	5
TAP	38	288	4
HLD	39	0	1	192
TAP	39	96	2
TAP	39	192	3
HLD	39	288	6	96
TAP	40	0	4
TAP	40	96	3
TAP	40	96	5
HLD	40	192	1	96
TAP	40	288	3
TAP	41	0	2
TAP	41	0	4
TAP	41	96	1
TAP	41	96	2
TAP	41	192	0
TAP	41	192	1
TAP	41	288	0
TAP	41	288	7
TAP	42	0	5
TAP	42	0	6
TAP	42	96	6
TAP	42	96	7
TAP	42	192	0
TAP	42	192	7
TAP	42	288	2
TAP	42	288	3
TAP	43	0	2
STR	43	0	3
SI_	43	0	3	96	48	6
TAP	43	96	2
TAP	43	192	2
STR	43	288	2
SI_	43	288	2	96	48	7
TAP	43	288	6
BRK	44	0	6
HLD	44	96	6	288
TAP	44	192	0
TAP	44	288	0
HLD	45	0	0	288
TAP	45	96	2
TAP	45	192	2
HLD	45	288	2	288
TAP	46	0	4
TAP	46	96	4
HLD	46	192	4	288
TAP	46	288	7
TAP	47	0	7
HLD	47	96	7	288
TAP	47	192	5
TAP	47	288	5
HLD	48	0	5	288
TAP	48	96	3
TAP	48	192	3
HLD	48	288	3	192
TAP	49	0	1
TAP	49	96	1
STR	49	192	7
SI_	49	192	7	96	48	3
STR	49	240	0
SI_	49	240	0	96	48	4
HLD	50	96	1	96
TAP	50	96	3
HLD	50	192	7	96
HLD	50	288	5	96
TAP	51	0	7
STR	51	96	1
SI_	51	96	1	96	48	5
STR	51	144	6
SI_	51	144	6	96	48	2
HLD	52	0	0	96
HLD	52	96	2	96
TAP	52	192	0
TAP	52	288	0
STR	52	288	6
SI_	52	288	6	96	96	2
TAP	52	336	0
TAP	53	0	0
TAP	53	192	0
HLD	53	192	1	192
TAP	53	288	7
TAP	54	0	6
TAP	54	96	0
TAP	54	144	7
TAP	54	192	1
TAP	54	240	6
HLD	54	288	1	144
HLD	54	288	5	144
BRK	55	192	1
BRK	55	192	5
BRK	55	288	2
BRK	55	288	6
BRK	56	0	3
BRK	56	0	7
TAP	56	96	0
TAP	56	144	0
TAP	56	192	7
TAP	56	240	0
TAP	56	288	0
TAP	56	336	7
TAP	57	0	2
TAP	57	48	2
TAP	57	96	3
TAP	57	144	2
TAP	57	192	2
TAP	57	240	3
TAP	57	288	0
TAP	57	336	7
TAP	58	0	1
TAP	58	48	6
TAP	58	96	2
TAP	58	144	5
HLD	58	192	3	144
TAP	58	336	5
TAP	59	48	2
TAP	59	96	4
TAP	59	144	4
TAP	59	192	3
TAP	59	240	4
TAP	59	288	4
TAP	59	336	3
HLD	60	0	4	96
TAP	60	96	2
HLD	60	144	2	96
TAP	60	240	6
HLD	60	288	6	192
STR	61	96	0
SI_	61	96	0	96	96	4
TAP	61	144	0
TAP	61	192	0
TAP	62	0	5
TAP	62	96	5
TAP	62	144	5
TAP	62	192	4
TAP	62	240	5
TAP	62	288	5
TAP	62	336	4
TAP	63	0	7
TAP	63	48	7
TAP	63	96	0
TAP	63	144	7
TAP	63	192	7
TAP	63	240	0
TAP	63	288	4
TAP	63	336	3
TAP	64	0	5
TAP	64	48	2
TAP	64	96	6
TAP	64	144	1
HLD	64	192	7	144
TAP	64	336	1
TAP	65	48	6
TAP	65	96	0
TAP	65	144	0
TAP	65	192	2
TAP	65	240	0
TAP	65	288	0
TAP	65	336	6
HLD	66	0	0	96
TAP	66	96	4
HLD	66	144	4	96
TAP	66	240	2
HLD	66	288	2	192
STR	67	96	7
SI_	67	96	7	96	48	4
STR	67	192	7
SI_	67	192	7	96	48	2
STR	67	288	7
SI_	67	288	7	96	48	3
STR	68	96	1
SUR	68	96	1	96	96	3
STR	69	0	3
SUR	69	0	3	96	96	5
STR	69	288	5
SUR	69	288	5	96	96	7
STR	70	192	7
SUR	70	192	7	96	96	1
TAP	71	96	0
TAP	71	96	7
TAP	71	168	0
TAP	71	168	7
TAP	71	240	1
TAP	71	240	6
TAP	71	288	0
TAP	71	288	7
TAP	72	0	1
TAP	72	0	6
TAP	72	72	1
TAP	72	72	6
TAP	72	144	0
TAP	72	144	7
TAP	72	192	1
TAP	72	192	6
TAP	72	288	0
TAP	72	288	1
TAP	72	360	0
TAP	72	360	1
TAP	73	48	2
TAP	73	48	7
TAP	73	96	0
TAP	73	96	1
TAP	73	192	6
TAP	73	192	7
TAP	73	264	6
TAP	73	264	7
TAP	73	336	0
TAP	73	336	5
TAP	74	0	6
TAP	74	0	7
STR	74	96	6
SUL	74	96	6	96	96	4
STR	75	0	4
SUL	75	0	4	96	96	2
STR	75	288	2
SUL	75	288	2	96	96	0
STR	76	192	0
SUL	76	192	0	96	96	6
STR	77	96	0
SI_	77	96	0	96	72	4
STR	77	192	6
SI_	77	192	6	96	72	2
TAP	77	288	6
STR	78	0	1
SI_	78	0	1	96	72	5
STR	78	96	7
SI_	78	96	7	96	72	3
TAP	78	192	7
STR	78	288	0
SCR	78	288	0	96	72	3
STR	79	0	7
SCL	79	0	7	96	72	4
TAP	79	96	7
STR	79	192	0
SSL	79	192	0	96	96	4
TAP	79	288	7
TAP	80	0	7
TAP	80	96	2
TAP	80	96	3
TAP	80	168	4
TAP	80	168	5
TAP	80	240	1
TAP	80	240	6
BRK	80	288	0
BRK	80	288	7
TAP	81	0	4
TAP	81	0	5
TAP	81	72	2
TAP	81	72	3
TAP	81	144	1
TAP	81	144	6
BRK	81	192	0
BRK	81	192	7

T_REC_TAP	312
T_REC_BRK	19
T_REC_XTP	0
T_REC_HLD	55
T_REC_XHO	0
T_REC_STR	29
T_REC_BST	0
T_REC_XST	0
T_REC_TTP	0
T_REC_THO	0
T_REC_SLD	29
T_REC_ALL	444
T_NUM_TAP	341
T_NUM_BRK	19
T_NUM_HLD	55
T_NUM_SLD	29
T_NUM_ALL	444
T_JUDGE_TAP	360
T_JUDGE_HLD	202
T_JUDGE_SLD	29
T_JUDGE_ALL	591
TTM_EACHPAIRS	91
TTM_SCR_TAP	170500
TTM_SCR_BRK	49400
TTM_SCR_HLD	55000
TTM_SCR_SLD	43500
TTM_SCR_ALL	318400
TTM_SCR_S	307050
TTM_SCR_SS	316500
TTM_RAT_ACV	10060

