VERSION	0.00.00	1.03.00
FES_MODE	0
BPM_DEF	165.000	165.000	165.000	165.000
MET_DEF	4	4
RESOLUTION	384
CLK_DEF	288
COMPATIBLE_CODE	MA2

BPM	0	0	165.000
MET	0	0	4	3

HLD	1	192	2	192
HLD	2	96	4	192
HLD	3	0	3	192
HLD	3	288	5	192
HLD	4	192	2	192
HLD	4	192	3	192
HLD	5	96	4	192
HLD	5	96	5	192
HLD	6	0	6	192
HLD	6	0	7	192
HLD	6	288	0	192
HLD	6	288	1	192
TAP	7	192	3
TAP	7	288	3
TAP	8	0	3
TAP	8	0	4
TAP	8	96	4
TAP	8	192	4
TAP	8	288	3
TAP	8	288	4
TAP	9	0	2
TAP	9	96	2
TAP	9	192	2
TAP	9	192	3
TAP	9	288	5
TAP	10	0	5
TAP	10	96	4
TAP	10	96	5
TAP	10	192	0
TAP	10	288	0
TAP	11	0	0
TAP	11	0	7
TAP	11	96	7
TAP	11	192	7
TAP	11	288	0
TAP	11	288	7
TAP	12	0	6
TAP	12	96	6
TAP	12	192	6
TAP	12	192	7
TAP	12	288	1
TAP	13	0	1
TAP	13	96	0
TAP	13	96	1
STR	13	192	7
SCL	13	192	7	96	384	2
STR	15	0	1
SCL	15	0	1	96	384	4
STR	16	192	0
SCR	16	192	0	96	384	5
STR	18	0	6
SCR	18	0	6	96	384	3
TAP	19	192	0
TAP	19	288	1
TAP	20	0	2
TAP	20	96	7
TAP	20	192	6
TAP	20	288	5
TAP	21	0	1
TAP	21	96	2
TAP	21	192	3
TAP	21	288	6
TAP	22	0	5
TAP	22	96	4
TAP	22	192	2
TAP	22	192	5
TAP	22	288	2
TAP	22	288	5
TAP	23	0	2
TAP	23	0	5
TAP	23	96	1
TAP	23	96	6
TAP	23	192	1
TAP	23	192	6
TAP	23	288	1
TAP	23	288	6
TAP	24	0	0
TAP	24	0	7
TAP	24	96	0
TAP	24	96	7
TAP	24	192	0
TAP	24	192	7
TAP	24	288	1
TAP	24	288	6
TAP	25	0	2
TAP	25	0	5
BRK	25	96	3
BRK	25	96	4
TAP	25	192	4
TAP	25	288	5
TAP	26	0	6
TAP	26	96	3
TAP	26	192	2
TAP	26	288	1
TAP	27	0	5
TAP	27	96	6
TAP	27	192	7
TAP	27	288	2
TAP	28	0	1
TAP	28	96	0
TAP	28	192	7
TAP	28	288	6
TAP	29	0	5
TAP	29	96	0
TAP	29	192	1
TAP	29	288	2
TAP	30	0	6
TAP	30	96	5
TAP	30	192	4
TAP	30	288	1
TAP	31	0	2
TAP	31	96	3
TAP	32	96	1
TAP	32	192	1
STR	32	288	1
SUL	32	288	1	96	192	5
TAP	33	288	6
TAP	34	0	6
STR	34	96	6
SUR	34	96	6	96	192	2
TAP	35	96	2
TAP	35	192	2
STR	35	288	2
SUL	35	288	2	96	192	5
TAP	36	288	5
TAP	37	0	5
STR	37	96	5
SUR	37	96	5	96	192	2
TAP	38	96	1
TAP	38	192	1
TAP	38	288	0
TAP	38	288	1
TAP	39	0	2
TAP	39	96	2
TAP	39	192	2
TAP	39	192	3
TAP	39	288	5
TAP	40	0	5
TAP	40	96	4
TAP	40	96	5
TAP	40	192	6
TAP	40	288	6
TAP	41	0	6
TAP	41	0	7
TAP	41	96	1
TAP	41	192	0
TAP	41	192	1
TAP	41	288	0
TAP	41	288	1
TAP	42	0	2
TAP	42	96	2
TAP	42	96	3
TAP	42	192	2
TAP	42	192	3
TAP	42	288	5
TAP	43	0	4
TAP	43	0	5
TAP	43	96	4
TAP	43	96	5
TAP	43	192	6
TAP	43	288	6
TAP	43	288	7
TAP	44	0	6
TAP	44	0	7
TAP	44	192	0
TAP	44	192	7
TAP	44	288	0
TAP	44	288	7
TAP	45	0	1
TAP	45	0	6
TAP	45	96	2
TAP	45	96	5
TAP	45	192	3
TAP	45	192	4
TAP	46	0	3
TAP	46	0	4
TAP	46	96	3
TAP	46	96	4
TAP	46	192	2
TAP	46	192	5
TAP	46	288	1
TAP	46	288	6
TAP	47	0	0
TAP	47	0	7
TAP	47	192	1
TAP	47	192	6
TAP	47	288	1
TAP	47	288	6
TAP	48	0	0
TAP	48	0	7
TAP	48	96	0
TAP	48	96	7
TAP	48	192	2
TAP	48	192	5
HLD	48	288	2	480
HLD	48	288	5	480
TAP	50	192	0
TAP	50	192	1
TAP	50	288	0
TAP	50	288	1
TAP	51	0	2
TAP	51	0	3
TAP	51	96	4
TAP	51	96	5
TAP	51	192	4
TAP	51	192	5
TAP	52	0	6
TAP	52	0	7
TAP	52	96	6
TAP	52	96	7
TAP	52	192	4
TAP	52	192	5
TAP	52	288	2
TAP	52	288	3
TAP	53	0	2
TAP	53	0	3
TAP	53	192	0
TAP	53	192	7
TAP	53	288	1
TAP	53	288	6
TAP	54	0	2
TAP	54	0	5
TAP	54	96	3
TAP	54	96	4
TAP	54	192	2
TAP	54	192	5
HLD	54	288	1	192
HLD	54	288	6	192
BRK	55	192	1
BRK	55	192	6
TAP	56	96	1
TAP	56	96	6
TAP	56	192	0
TAP	56	240	7
TAP	56	288	0
TAP	57	0	1
TAP	57	0	6
TAP	57	96	0
TAP	57	144	7
TAP	57	192	0
TAP	57	288	0
TAP	57	336	7
TAP	58	0	1
TAP	58	48	6
TAP	58	96	2
TAP	58	144	5
HLD	58	192	3	192
TAP	59	96	4
TAP	59	144	3
TAP	59	192	4
TAP	59	288	3
TAP	59	288	4
HLD	60	0	3	96
HLD	60	96	2	96
HLD	60	192	1	96
STR	60	288	7
SSR	60	288	7	96	384	3
TAP	62	96	1
TAP	62	96	6
TAP	62	192	7
TAP	62	240	0
TAP	62	288	7
TAP	63	0	1
TAP	63	0	6
TAP	63	96	7
TAP	63	144	0
TAP	63	192	7
TAP	63	288	7
TAP	63	336	0
TAP	64	0	6
TAP	64	48	1
TAP	64	96	5
TAP	64	144	2
HLD	64	192	4	192
TAP	65	96	3
TAP	65	144	4
TAP	65	192	3
TAP	65	288	3
TAP	65	288	4
HLD	66	0	4	96
HLD	66	96	5	96
HLD	66	192	6	96
HLD	66	288	7	96
TAP	67	192	6
TAP	67	288	2
BRK	68	0	0
TAP	68	96	1
TAP	68	192	1
TAP	68	288	0
TAP	68	288	2
TAP	69	0	1
TAP	69	96	1
TAP	69	192	0
TAP	69	192	2
TAP	69	288	7
TAP	70	0	7
TAP	70	96	0
TAP	70	96	6
TAP	70	192	7
TAP	70	288	7
TAP	71	0	0
TAP	71	0	6
TAP	71	96	0
TAP	71	192	0
TAP	71	288	1
TAP	71	288	7
TAP	72	0	0
TAP	72	96	0
TAP	72	192	1
TAP	72	192	7
TAP	72	288	6
TAP	73	0	6
TAP	73	96	5
TAP	73	96	7
TAP	73	192	6
TAP	73	288	6
TAP	74	0	5
TAP	74	0	7
TAP	74	96	2
TAP	74	192	2
TAP	74	240	3
TAP	74	288	2
TAP	75	0	5
TAP	75	96	5
TAP	75	144	4
TAP	75	192	5
TAP	75	288	1
TAP	76	0	1
TAP	76	48	0
TAP	76	96	1
TAP	76	192	6
TAP	76	288	6
TAP	76	336	7
TAP	77	0	6
TAP	77	96	4
TAP	77	96	5
TAP	77	192	4
TAP	77	192	5
TAP	77	240	4
TAP	77	240	5
TAP	77	288	4
TAP	77	288	5
TAP	78	0	2
TAP	78	0	3
TAP	78	96	2
TAP	78	96	3
TAP	78	144	2
TAP	78	144	3
TAP	78	192	2
TAP	78	192	3
TAP	78	288	4
TAP	78	288	6
TAP	79	0	4
TAP	79	0	6
TAP	79	48	4
TAP	79	48	6
TAP	79	96	4
TAP	79	96	6
TAP	79	192	1
TAP	79	192	3
TAP	79	288	1
TAP	79	288	3
TAP	79	336	1
TAP	79	336	3
TAP	80	0	1
TAP	80	0	3
TAP	80	96	1
TAP	80	96	6
TAP	80	192	1
TAP	80	192	6
TAP	80	240	1
TAP	80	240	6
TAP	80	288	1
TAP	80	288	6
TAP	81	0	0
TAP	81	0	7
TAP	81	96	0
TAP	81	96	7
TAP	81	144	0
TAP	81	144	7
BRK	81	192	0
BRK	81	192	7

T_REC_TAP	332
T_REC_BRK	7
T_REC_XTP	0
T_REC_HLD	25
T_REC_XHO	0
T_REC_STR	9
T_REC_BST	0
T_REC_XST	0
T_REC_TTP	0
T_REC_THO	0
T_REC_SLD	9
T_REC_ALL	382
T_NUM_TAP	341
T_NUM_BRK	7
T_NUM_HLD	25
T_NUM_SLD	9
T_NUM_ALL	382
T_JUDGE_TAP	348
T_JUDGE_HLD	98
T_JUDGE_SLD	9
T_JUDGE_ALL	455
TTM_EACHPAIRS	107
TTM_SCR_TAP	170500
TTM_SCR_BRK	18200
TTM_SCR_HLD	25000
TTM_SCR_SLD	13500
TTM_SCR_ALL	227200
TTM_SCR_S	219750
TTM_SCR_SS	226500
TTM_RAT_ACV	10030

