VERSION	0.00.00	1.03.00
FES_MODE	0
BPM_DEF	165.000	165.000	165.000	165.000
MET_DEF	4	4
RESOLUTION	384
CLK_DEF	288
COMPATIBLE_CODE	MA2

BPM	0	0	165.000
MET	0	0	4	3

TAP	7	192	6
TAP	8	96	6
TAP	9	0	7
TAP	9	288	7
TAP	10	192	0
TAP	11	96	0
TAP	12	0	1
TAP	12	288	1
STR	13	192	0
SI_	13	192	0	96	480	3
STR	16	192	7
SI_	16	192	7	96	480	4
STR	19	192	1
SI_	19	192	1	96	480	6
STR	22	192	5
SI_	22	192	5	96	480	2
TAP	25	192	1
TAP	26	96	7
TAP	27	0	5
TAP	27	288	3
TAP	28	192	0
TAP	28	192	1
TAP	29	96	2
TAP	29	96	3
TAP	30	0	4
TAP	30	0	5
TAP	30	288	6
TAP	30	288	7
BRK	31	192	0
BRK	31	192	7
TAP	32	96	0
TAP	32	192	0
TAP	33	0	1
TAP	33	96	1
TAP	33	288	2
TAP	34	0	2
TAP	34	192	3
TAP	34	288	3
TAP	35	96	7
TAP	35	192	7
TAP	36	0	6
TAP	36	96	6
TAP	36	288	5
TAP	37	0	5
TAP	37	192	4
TAP	37	288	4
HLD	38	96	3	288
HLD	39	288	4	288
HLD	41	96	2	288
HLD	42	288	5	288
TAP	44	96	7
TAP	44	288	7
TAP	45	0	7
TAP	45	192	0
TAP	45	288	0
TAP	46	96	1
TAP	46	192	1
TAP	47	0	2
TAP	47	96	2
TAP	47	288	3
TAP	48	0	3
TAP	48	192	4
TAP	48	288	4
TAP	50	96	0
TAP	50	288	0
TAP	51	0	0
TAP	51	192	7
TAP	51	288	7
TAP	52	96	6
TAP	52	192	6
TAP	53	0	5
TAP	53	96	5
TAP	53	288	4
TAP	54	0	4
TAP	54	192	3
TAP	54	192	4
TAP	54	288	3
TAP	54	288	4
TAP	55	96	2
TAP	55	96	5
BRK	55	192	2
BRK	55	192	5
TAP	56	96	3
TAP	56	192	3
TAP	56	288	3
TAP	57	288	4
TAP	58	0	4
TAP	58	96	4
TAP	59	96	2
TAP	59	192	2
TAP	59	288	2
TAP	60	288	5
TAP	61	0	5
TAP	61	96	5
TAP	62	96	1
TAP	62	192	1
TAP	62	288	0
TAP	63	288	7
TAP	64	0	7
TAP	64	96	6
TAP	65	96	5
TAP	65	192	5
TAP	65	288	4
TAP	66	288	3
TAP	67	0	3
TAP	67	96	2
TAP	68	96	0
TAP	68	192	0
TAP	68	288	1
TAP	69	0	1
TAP	69	288	7
TAP	70	0	7
TAP	70	96	6
TAP	70	192	6
TAP	71	96	5
TAP	71	192	5
TAP	71	288	4
TAP	72	0	4
TAP	72	288	2
TAP	73	0	2
TAP	73	96	3
TAP	73	192	3
TAP	74	96	0
TAP	74	192	0
TAP	75	0	2
TAP	75	96	2
TAP	75	288	7
TAP	76	0	7
TAP	76	192	5
TAP	76	288	5
TAP	77	96	3
TAP	77	96	4
TAP	77	192	3
TAP	77	192	4
TAP	78	0	2
TAP	78	0	5
TAP	78	96	2
TAP	78	96	5
TAP	78	288	1
TAP	78	288	6
TAP	79	0	1
TAP	79	0	6
TAP	79	192	0
TAP	79	192	7
TAP	79	288	0
TAP	79	288	7
TAP	80	96	1
TAP	80	96	6
TAP	80	192	1
TAP	80	192	6
BRK	81	0	0
BRK	81	0	7

T_REC_TAP	134
T_REC_BRK	6
T_REC_XTP	0
T_REC_HLD	4
T_REC_XHO	0
T_REC_STR	4
T_REC_BST	0
T_REC_XST	0
T_REC_TTP	0
T_REC_THO	0
T_REC_SLD	4
T_REC_ALL	152
T_NUM_TAP	138
T_NUM_BRK	6
T_NUM_HLD	4
T_NUM_SLD	4
T_NUM_ALL	152
T_JUDGE_TAP	144
T_JUDGE_HLD	24
T_JUDGE_SLD	4
T_JUDGE_ALL	172
TTM_EACHPAIRS	20
TTM_SCR_TAP	69000
TTM_SCR_BRK	15600
TTM_SCR_HLD	4000
TTM_SCR_SLD	6000
TTM_SCR_ALL	94600
TTM_SCR_S	91200
TTM_SCR_SS	94000
TTM_RAT_ACV	10063

