VERSION	0.00.00	1.03.00
FES_MODE	0
BPM_DEF	246.000	246.000	246.000	246.000
MET_DEF	4	4
RESOLUTION	384
CLK_DEF	384
COMPATIBLE_CODE	MA2

BPM	0	0	246.000
MET	0	0	4	4

HLD	2	0	2	768
TAP	2	96	3
TAP	2	288	3
TAP	3	96	3
TAP	3	288	3
HLD	4	0	5	480
TAP	4	96	4
TAP	4	288	4
TAP	5	96	4
TAP	5	256	2
TAP	5	288	3
BRK	5	352	1
BRK	5	352	4
TAP	6	256	5
TAP	6	288	4
BRK	6	352	3
BRK	6	352	6
TAP	7	256	1
TAP	7	288	2
BRK	7	352	0
BRK	7	352	3
TAP	8	64	6
TAP	8	96	5
BRK	8	160	4
BRK	8	160	7
TAP	8	256	3
TAP	8	288	4
TAP	8	352	0
TAP	9	0	7
TAP	9	32	0
TAP	9	64	7
TAP	9	96	0
TAP	9	128	7
TAP	9	160	0
BRK	9	192	1
BRK	9	192	6
TAP	9	352	0
TAP	9	352	5
TAP	10	64	6
TAP	10	96	7
TAP	10	128	6
TAP	10	160	5
TAP	10	192	4
TAP	10	288	0
TAP	10	288	1
TAP	10	352	2
TAP	10	352	7
TAP	11	64	1
TAP	11	96	0
TAP	11	128	1
TAP	11	160	2
TAP	11	192	3
TAP	11	288	4
TAP	11	288	5
TAP	11	352	3
TAP	11	352	6
TAP	12	64	1
TAP	12	96	2
TAP	12	160	0
TAP	12	160	3
TAP	12	256	6
TAP	12	288	5
TAP	12	352	4
TAP	12	352	7
TAP	13	64	3
TAP	13	96	2
TAP	13	128	3
TAP	13	160	4
TAP	13	192	5
TAP	13	288	0
TAP	13	288	1
TAP	13	352	2
TAP	13	352	7
TAP	14	64	1
TAP	14	96	0
TAP	14	128	1
TAP	14	160	2
TAP	14	192	3
TAP	14	288	6
TAP	14	288	7
TAP	14	352	0
TAP	14	352	5
TAP	15	64	6
TAP	15	96	7
TAP	15	128	6
TAP	15	160	5
TAP	15	192	4
TAP	15	288	2
TAP	15	288	3
BRK	15	352	1
BRK	15	352	4
TAP	16	64	6
TAP	16	96	5
BRK	16	160	4
BRK	16	160	7
TAP	16	256	1
TAP	16	288	2
BRK	16	352	0
BRK	16	352	3
TAP	17	64	2
TAP	17	96	3
TAP	17	160	3
TAP	17	192	4
TAP	17	256	4
TAP	17	288	5
BRK	17	352	3
BRK	17	352	6
TAP	18	64	5
TAP	18	96	4
TAP	18	128	5
TAP	18	160	6
TAP	18	192	7
TAP	18	288	2
TAP	18	288	3
TAP	18	352	1
TAP	18	352	4
TAP	19	64	2
TAP	19	96	3
TAP	19	128	2
TAP	19	160	1
TAP	19	192	0
TAP	19	288	6
TAP	19	288	7
TAP	19	352	0
TAP	19	352	5
TAP	20	64	1
TAP	20	96	2
TAP	20	160	0
TAP	20	160	4
TAP	20	256	6
TAP	20	288	5
TAP	20	352	3
TAP	20	352	7
TAP	21	64	4
TAP	21	96	5
TAP	21	128	4
TAP	21	160	3
TAP	21	192	2
TAP	21	288	2
TAP	21	288	3
TAP	21	352	1
TAP	21	352	4
TAP	22	64	2
TAP	22	96	3
TAP	22	128	2
TAP	22	160	1
TAP	22	192	0
TAP	22	288	4
TAP	22	288	5
TAP	22	352	3
TAP	22	352	6
TAP	23	64	5
TAP	23	96	4
TAP	23	128	5
TAP	23	160	6
TAP	23	192	7
TAP	23	288	0
TAP	23	288	1
BRK	23	352	2
BRK	23	352	7
TAP	24	64	6
TAP	24	96	5
BRK	24	160	3
BRK	24	160	7
TAP	24	256	1
TAP	24	288	2
BRK	24	352	0
BRK	24	352	4
TAP	25	64	2
TAP	25	96	3
TAP	25	160	5
TAP	25	192	4
TAP	25	256	1
TAP	25	288	3
TAP	25	352	6
TAP	26	0	4
TAP	26	64	1
TAP	26	96	4
TAP	26	160	6
TAP	26	192	3
TAP	26	256	0
TAP	26	288	3
TAP	26	352	7
BRK	27	0	0
BRK	27	0	6
TAP	27	192	1
TAP	27	224	0
TAP	27	256	1
TAP	27	288	0
TAP	27	320	1
TAP	27	352	0
TAP	28	0	3
TAP	28	32	6
TAP	28	64	3
TAP	28	96	6
TAP	28	128	2
TAP	28	160	7
TAP	28	192	2
TAP	28	224	7
TAP	28	256	2
TAP	28	288	7
TAP	28	320	2
TAP	28	352	7
TAP	29	0	4
TAP	29	32	5
TAP	29	64	4
TAP	29	96	5
TAP	29	128	4
TAP	29	160	5
TAP	29	192	2
TAP	29	224	3
TAP	29	256	2
TAP	29	288	3
TAP	29	320	2
TAP	29	352	3
TAP	30	0	0
TAP	30	32	5
TAP	30	64	0
TAP	30	96	5
TAP	30	128	0
TAP	30	160	5
TAP	30	192	1
TAP	30	224	4
TAP	30	256	1
TAP	30	288	4
TAP	30	320	7
TAP	30	352	6
TAP	31	0	7
TAP	31	32	6
TAP	31	64	7
TAP	31	96	6
TAP	31	128	1
TAP	31	160	0
TAP	31	192	1
TAP	31	224	0
TAP	31	256	1
BRK	31	288	2
BRK	31	288	7
BRK	32	0	4
BRK	32	0	5
BRK	32	96	3
BRK	32	96	6
BRK	32	192	0
BRK	32	192	5
TAP	32	288	4
TAP	32	320	3
TAP	32	352	2
TAP	33	0	1
TAP	33	96	4
TAP	33	96	5
TAP	33	160	5
TAP	33	192	4
TAP	33	256	2
TAP	33	288	3
TAP	33	320	4
TAP	33	352	5
TAP	34	0	6
TAP	34	96	2
TAP	34	96	3
TAP	34	192	0
TAP	34	192	6
TAP	34	256	0
TAP	34	256	6
TAP	34	352	4
TAP	34	352	5
TAP	35	64	6
TAP	35	96	7
TAP	35	192	2
TAP	35	192	3
TAP	35	288	1
TAP	35	288	7
TAP	35	352	1
TAP	35	352	7
TAP	36	96	3
TAP	36	96	4
TAP	36	192	5
TAP	36	288	3
TAP	36	320	2
TAP	36	352	1
TAP	37	0	0
TAP	37	32	7
TAP	37	64	6
STR	37	96	5
SCR	37	96	5	96	96	2
TAP	37	128	4
TAP	37	160	3
BRK	38	0	0
BRK	38	0	7
HLD	38	96	3	96
HLD	38	96	4	96
BRK	38	288	1
BRK	38	288	6
STR	39	160	2
SCL	39	160	2	96	48	7
STR	39	288	4
SCL	39	288	4	96	48	1
STR	40	48	6
SCL	40	48	6	96	48	3
STR	40	192	0
SCL	40	192	0	96	48	5
TAP	40	352	2
TAP	41	64	5
TAP	41	96	4
TAP	41	160	4
TAP	41	192	3
TAP	41	256	3
TAP	41	288	2
TAP	41	352	2
TAP	42	0	3
TAP	42	32	4
TAP	42	64	5
TAP	42	96	4
TAP	42	160	4
TAP	42	192	5
TAP	42	256	5
TAP	42	288	6
TAP	43	0	7
TAP	43	32	6
TAP	43	64	5
TAP	43	96	4
TAP	43	160	2
TAP	43	192	3
TAP	43	256	3
BRK	43	288	1
BRK	43	288	4
TAP	45	0	2
TAP	45	48	3
TAP	45	96	2
TAP	45	144	5
TAP	45	192	4
TAP	45	240	5
TAP	45	288	1
TAP	45	336	2
TAP	46	0	1
TAP	46	48	6
TAP	46	96	5
TAP	46	144	6
TAP	46	192	0
TAP	46	240	7
TAP	46	288	1
TAP	46	336	6
TAP	47	0	1
TAP	47	48	2
TAP	47	96	1
TAP	47	144	6
TAP	47	192	5
TAP	47	240	6
TAP	47	288	0
TAP	47	336	0
TAP	48	0	7
TAP	48	32	6
TAP	48	64	5
TAP	48	96	4
HLD	48	144	3	80
HLD	48	224	2	64
BRK	48	288	1
TAP	49	0	5
TAP	49	48	4
TAP	49	96	5
TAP	49	144	2
TAP	49	192	3
TAP	49	240	2
TAP	49	288	6
TAP	49	336	5
TAP	50	0	6
TAP	50	48	1
TAP	50	96	2
TAP	50	144	1
TAP	50	192	7
TAP	50	240	0
TAP	50	288	6
TAP	50	336	1
TAP	51	0	6
TAP	51	48	5
TAP	51	96	6
TAP	51	144	1
TAP	51	192	2
TAP	51	240	1
HLD	51	288	5	64
HLD	51	352	4	64
HLD	52	32	3	64
BRK	52	96	2
TAP	53	288	5
TAP	53	336	4
TAP	54	0	5
TAP	54	48	1
TAP	54	96	0
TAP	54	144	1
TAP	54	192	6
TAP	54	240	7
TAP	54	288	6
TAP	54	336	2
TAP	55	0	3
TAP	55	48	2
TAP	55	96	4
TAP	55	144	3
TAP	55	192	5
TAP	55	240	2
TAP	55	288	6
TAP	55	336	7
TAP	56	0	6
TAP	56	48	2
TAP	56	96	3
TAP	56	144	2
TAP	56	192	7
TAP	56	240	7
TAP	56	288	0
TAP	56	320	1
TAP	56	352	2
TAP	57	0	3
HLD	57	48	4	80
HLD	57	128	6	64
BRK	57	192	0
TAP	57	288	2
TAP	57	336	3
TAP	58	0	2
TAP	58	48	6
TAP	58	96	7
TAP	58	144	6
TAP	58	192	1
TAP	58	240	0
TAP	58	288	1
TAP	58	336	5
TAP	59	0	4
TAP	59	48	5
TAP	59	96	3
TAP	59	144	4
TAP	59	192	2
TAP	59	240	5
TAP	59	288	1
TAP	59	336	0
TAP	60	0	1
TAP	60	48	5
TAP	60	96	4
TAP	60	144	5
TAP	60	192	2
TAP	60	240	3
TAP	60	288	2
TAP	60	336	5
TAP	61	0	4
TAP	61	48	5
TAP	61	96	4
TAP	61	144	5
TAP	61	192	1
TAP	61	240	3
TAP	61	288	1
TAP	61	336	6
TAP	62	0	4
TAP	62	48	6
TAP	62	96	2
TAP	62	144	0
TAP	62	192	2
TAP	62	240	5
TAP	62	288	7
TAP	62	336	5
TAP	63	0	3
TAP	63	48	4
TAP	63	96	1
TAP	63	144	6
TAP	63	192	1
TAP	63	240	3
TAP	63	288	1
TAP	63	336	6
TAP	64	0	4
TAP	64	48	6
TAP	64	96	0
TAP	64	144	0
TAP	64	192	7
TAP	64	224	6
TAP	64	256	5
TAP	64	288	4
HLD	64	336	3	80
HLD	65	32	1	64
BRK	65	96	7
TAP	65	192	6
TAP	65	240	4
TAP	65	288	6
TAP	65	336	1
TAP	66	0	3
TAP	66	48	1
TAP	66	96	7
TAP	66	144	4
TAP	66	192	7
TAP	66	240	0
TAP	66	288	3
TAP	66	336	0
TAP	67	0	7
TAP	67	48	0
TAP	67	96	5
TAP	67	144	2
TAP	67	192	4
TAP	67	240	7
TAP	67	288	4
TAP	67	336	3
TAP	68	0	0
TAP	68	48	3
TAP	68	96	7
TAP	68	144	7
TAP	68	192	0
TAP	68	224	1
TAP	68	256	2
TAP	68	288	3
HLD	68	336	4	80
HLD	69	32	6	64
BRK	69	96	0
TAP	69	192	1
TAP	69	240	3
TAP	69	288	1
TAP	69	336	6
TAP	70	0	4
TAP	70	48	6
TAP	70	96	0
TAP	70	144	4
TAP	70	192	0
TAP	70	240	7
TAP	70	288	3
TAP	70	336	7
TAP	71	0	3
TAP	71	48	4
TAP	71	96	1
TAP	71	144	6
TAP	71	192	2
TAP	71	240	3
TAP	71	288	1
TAP	71	336	4
TAP	72	0	0
TAP	72	48	6
TAP	72	96	7
TAP	72	144	5
TAP	72	192	0
TAP	72	240	4
TAP	72	288	1
TAP	72	336	3
TAP	73	0	2
TAP	73	48	5
TAP	73	96	0
TAP	73	144	6
STR	73	192	7
SCL	73	192	7	96	480	0
BRK	75	192	1
BRK	75	192	6
BRK	75	256	1
BRK	75	256	6
TAP	75	352	5
TAP	76	0	7
TAP	76	64	7
TAP	76	96	5
BRK	76	160	1
BRK	76	160	6
TAP	76	256	2
TAP	76	288	0
TAP	76	352	0
BRK	77	0	1
BRK	77	0	7
BRK	77	160	1
BRK	77	160	6
TAP	77	256	0
TAP	77	288	7
TAP	77	352	7
STR	78	0	1
SI_	78	0	1	96	48	4
TAP	78	64	1
STR	78	96	6
SI_	78	96	6	96	48	3
TAP	78	160	6
STR	78	192	0
SI_	78	192	0	96	48	4
TAP	78	256	0
STR	78	288	7
SI_	78	288	7	96	48	3
TAP	78	352	7
STR	79	0	2
SI_	79	0	2	96	48	0
TAP	79	64	2
STR	79	96	6
SI_	79	96	6	96	48	4
TAP	79	160	6
STR	79	192	3
SI_	79	192	3	96	48	7
TAP	79	256	3
STR	79	288	5
SI_	79	288	5	96	48	1
TAP	79	352	5
STR	80	0	2
SI_	80	0	2	96	48	4
TAP	80	64	2
STR	80	96	6
SI_	80	96	6	96	48	0
TAP	80	160	6
STR	80	192	1
SI_	80	192	1	96	48	4
TAP	80	256	1
STR	80	288	0
SI_	80	288	0	96	48	5
TAP	80	352	0
TAP	81	0	2
TAP	81	64	2
TAP	81	96	3
BRK	81	160	1
BRK	81	160	4
TAP	81	256	6
STR	81	288	7
SI_	81	288	7	96	48	3
TAP	81	352	7
STR	82	0	6
SI_	82	0	6	96	48	4
TAP	82	64	6
STR	82	96	0
SI_	82	96	0	96	48	2
TAP	82	160	0
STR	82	192	7
SI_	82	192	7	96	48	5
TAP	82	256	7
STR	82	288	1
SI_	82	288	1	96	48	3
TAP	82	352	1
STR	83	0	0
SI_	83	0	0	96	48	4
TAP	83	64	0
STR	83	96	3
SI_	83	96	3	96	48	7
TAP	83	160	3
STR	83	192	4
SI_	83	192	4	96	48	6
TAP	83	256	4
STR	83	288	2
SI_	83	288	2	96	48	0
TAP	83	352	2
STR	84	0	7
SI_	84	0	7	96	48	3
TAP	84	64	7
STR	84	96	0
SI_	84	96	0	96	48	4
TAP	84	160	0
TAP	84	192	6
TAP	84	256	6
TAP	84	288	7
TAP	85	0	1
TAP	85	64	1
TAP	85	96	0
BRK	85	160	2
BRK	85	160	7
TAP	85	256	0
STR	85	288	7
SI_	85	288	7	96	48	4
TAP	85	352	7
STR	86	0	0
SI_	86	0	0	96	48	3
TAP	86	64	0
STR	86	96	6
SI_	86	96	6	96	48	2
TAP	86	160	6
STR	86	192	1
SI_	86	192	1	96	48	5
TAP	86	256	1
STR	86	288	7
SI_	86	288	7	96	48	3
TAP	86	352	7
STR	87	0	0
SI_	87	0	0	96	48	4
TAP	87	64	0
STR	87	96	6
SI_	87	96	6	96	48	1
TAP	87	160	6
STR	87	192	2
SI_	87	192	2	96	48	5
TAP	87	256	2
STR	87	288	6
SI_	87	288	6	96	48	3
TAP	87	352	6
STR	88	0	1
SI_	88	0	1	96	48	4
TAP	88	64	1
STR	88	96	5
SI_	88	96	5	96	48	0
TAP	88	160	5
STR	88	192	2
SI_	88	192	2	96	48	7
TAP	88	256	2
STR	88	288	6
SI_	88	288	6	96	48	3
TAP	88	352	6
TAP	89	0	1
TAP	89	64	1
TAP	89	96	0
BRK	89	160	1
BRK	89	160	7
TAP	89	256	2
STR	89	288	3
SI_	89	288	3	96	48	5
TAP	89	352	3
STR	90	0	2
SI_	90	0	2	96	48	6
TAP	90	64	2
STR	90	96	7
SI_	90	96	7	96	48	1
TAP	90	160	7
STR	90	192	3
SI_	90	192	3	96	48	5
TAP	90	256	3
STR	90	288	6
SI_	90	288	6	96	48	2
TAP	90	352	6
STR	91	0	1
SI_	91	0	1	96	48	7
TAP	91	64	1
STR	91	96	5
SI_	91	96	5	96	48	3
TAP	91	160	5
TAP	91	192	1
TAP	91	256	1
TAP	91	288	0
TAP	91	352	0
TAP	92	0	7
TAP	92	64	7
TAP	92	96	6
STR	92	160	6
SCL	92	160	6	96	192	7
BRK	93	160	1
BRK	93	160	6
BRK	93	288	0
BRK	93	288	7
STR	94	0	7
SCL	94	0	7	96	48	4
TAP	94	64	7
STR	94	96	1
SUR	94	96	1	96	48	5
TAP	94	160	1
STR	94	192	7
SCL	94	192	7	96	48	4
TAP	94	256	7
STR	94	288	1
SUR	94	288	1	96	48	5
TAP	94	352	1
STR	95	0	6
SUL	95	0	6	96	48	2
TAP	95	64	6
STR	95	96	0
SCR	95	96	0	96	48	3
TAP	95	160	0
STR	95	192	6
SUL	95	192	6	96	48	2
TAP	95	256	6
STR	95	288	0
SCR	95	288	0	96	48	3
TAP	95	352	0
STR	96	0	7
SCL	96	0	7	96	48	4
TAP	96	64	7
STR	96	96	1
SUR	96	96	1	96	48	5
TAP	96	160	1
STR	96	192	7
SCL	96	192	7	96	48	4
TAP	96	256	7
STR	96	288	1
SUR	96	288	1	96	48	5
TAP	96	352	1
TAP	97	0	6
TAP	97	64	6
TAP	97	96	7
BRK	97	160	1
BRK	97	160	5
BRK	97	288	3
BRK	97	288	7
STR	98	0	4
SCR	98	0	4	96	48	7
TAP	98	64	4
STR	98	96	2
SUL	98	96	2	96	48	6
TAP	98	160	2
STR	98	192	4
SCR	98	192	4	96	48	7
TAP	98	256	4
STR	98	288	2
SUL	98	288	2	96	48	6
TAP	98	352	2
STR	99	0	4
SCR	99	0	4	96	48	7
TAP	99	64	4
TAP	99	96	2
TAP	99	192	0
TAP	99	224	1
TAP	99	256	2
TAP	99	288	7
TAP	99	320	6
TAP	99	352	5
TAP	100	0	1
TAP	100	32	2
TAP	100	64	3
TAP	100	96	6
TAP	100	128	5
TAP	100	160	4
TAP	100	192	0
TAP	100	224	1
TAP	100	256	2
TAP	100	288	6
TAP	100	320	5
TAP	100	352	4
BRK	101	0	2
BRK	101	0	3
TAP	101	96	4
TAP	101	96	5
BRK	101	160	3
BRK	101	160	6
TAP	101	288	3
TAP	101	288	4
STR	102	0	0
SCR	102	0	0	96	48	3
TAP	102	64	0
STR	102	96	6
SUL	102	96	6	96	48	2
TAP	102	160	6
STR	102	192	0
SCR	102	192	0	96	48	3
TAP	102	256	0
STR	102	288	6
SUL	102	288	6	96	48	2
TAP	102	352	6
STR	103	0	1
SUR	103	0	1	96	48	5
TAP	103	64	1
STR	103	96	7
SCL	103	96	7	96	48	4
TAP	103	160	7
STR	103	192	1
SUR	103	192	1	96	48	5
TAP	103	256	1
STR	103	288	7
SCL	103	288	7	96	48	4
TAP	103	352	7
STR	104	0	0
SCR	104	0	0	96	48	3
TAP	104	64	0
STR	104	96	6
SUL	104	96	6	96	48	2
TAP	104	160	6
STR	104	192	0
SCR	104	192	0	96	48	3
TAP	104	256	0
STR	104	288	6
SUL	104	288	6	96	48	2
TAP	104	352	6
TAP	105	0	1
TAP	105	64	1
TAP	105	96	0
BRK	105	160	2
BRK	105	160	6
TAP	105	288	3
TAP	105	288	5
STR	106	0	3
SCL	106	0	3	96	48	0
TAP	106	64	3
STR	106	96	5
SUR	106	96	5	96	48	1
TAP	106	160	5
STR	106	192	3
SCL	106	192	3	96	48	0
TAP	106	256	3
STR	106	288	5
SUR	106	288	5	96	48	1
TAP	106	352	5
STR	107	0	2
SUL	107	0	2	96	48	6
TAP	107	64	2
STR	107	96	4
SCR	107	96	4	96	48	7
TAP	107	160	4
STR	107	192	2
SUL	107	192	2	96	48	6
TAP	107	256	2
STR	107	288	4
SCR	107	288	4	96	48	7
TAP	107	352	4
TAP	108	0	2
TAP	108	64	2
TAP	108	96	3
TAP	108	160	3
TAP	108	192	4
TAP	108	256	4
TAP	108	288	5
TAP	108	352	5
TAP	109	0	6
TAP	109	64	6
BRK	109	160	5
BRK	109	160	7
TAP	109	256	7
STR	109	288	0
SI_	109	288	0	96	48	4
BRK	109	352	0
STR	110	0	1
SI_	110	0	1	96	48	5
BRK	110	64	1
STR	110	96	2
SI_	110	96	2	96	48	6
BRK	110	160	2
STR	110	192	3
SI_	110	192	3	96	48	7
BRK	110	256	3
STR	110	288	4
SI_	110	288	4	96	48	0
BRK	110	352	4
STR	111	0	5
SI_	111	0	5	96	48	1
BRK	111	64	5
STR	111	96	6
SI_	111	96	6	96	48	2
BRK	111	160	6
HLD	111	192	7	160
HLD	111	352	5	128
STR	112	96	3
SCL	112	96	3	96	192	4
TAP	113	160	0
TAP	113	160	5
TAP	113	256	6
TAP	113	288	5
TAP	113	320	4
TAP	113	352	3
TAP	114	0	4
TAP	114	96	2
TAP	114	96	3
TAP	114	160	2
TAP	114	160	7
TAP	114	256	1
TAP	114	288	2
TAP	114	320	3
TAP	114	352	4
TAP	115	0	3
TAP	115	96	3
TAP	115	96	4
BRK	115	160	2
BRK	115	160	5
TAP	115	256	6
TAP	115	288	4
BRK	115	352	3
BRK	115	352	5
TAP	116	64	1
TAP	116	96	3
BRK	116	160	2
BRK	116	160	4
TAP	116	256	3
TAP	116	288	4
TAP	116	320	3
TAP	116	352	4
TAP	117	0	3
TAP	117	96	4
TAP	117	96	5
TAP	117	160	1
TAP	117	160	4
TAP	117	256	2
TAP	117	288	1
TAP	117	320	0
TAP	117	352	7
TAP	118	0	0
TAP	118	96	2
TAP	118	96	3
TAP	118	160	3
TAP	118	160	6
TAP	118	256	5
TAP	118	288	6
TAP	118	320	7
TAP	118	352	0
TAP	119	0	7
STR	119	64	1
SI_	119	64	1	96	48	4
TAP	119	96	0
BRK	119	160	1
STR	119	256	6
SI_	119	256	6	96	48	3
TAP	119	288	7
BRK	119	352	6
STR	120	64	1
SCL	120	64	1	96	48	6
TAP	120	96	0
BRK	120	160	1
STR	120	256	5
SUR	120	256	5	96	48	1
TAP	120	288	4
BRK	120	352	5
STR	121	64	2
SCR	121	64	2	96	48	5
TAP	121	96	3
BRK	121	160	2
STR	121	256	6
SCR	121	256	6	96	48	1
TAP	121	288	7
BRK	121	352	6
STR	122	64	2
SUL	122	64	2	96	48	6
TAP	122	96	3
BRK	122	160	2
STR	122	256	5
SCL	122	256	5	96	48	2
TAP	122	288	4
BRK	122	352	5
STR	123	64	0
SI_	123	64	0	96	48	4
TAP	123	96	7
BRK	123	160	0

T_REC_TAP	675
T_REC_BRK	99
T_REC_XTP	0
T_REC_HLD	17
T_REC_XHO	0
T_REC_STR	104
T_REC_BST	0
T_REC_XST	0
T_REC_TTP	0
T_REC_THO	0
T_REC_SLD	104
T_REC_ALL	999
T_NUM_TAP	779
T_NUM_BRK	99
T_NUM_HLD	17
T_NUM_SLD	104
T_NUM_ALL	999
T_JUDGE_TAP	878
T_JUDGE_HLD	30
T_JUDGE_SLD	104
T_JUDGE_ALL	1012
TTM_EACHPAIRS	83
TTM_SCR_TAP	389500
TTM_SCR_BRK	257400
TTM_SCR_HLD	17000
TTM_SCR_SLD	156000
TTM_SCR_ALL	819900
TTM_SCR_S	785700
TTM_SCR_SS	810000
TTM_RAT_ACV	10122

