VERSION	0.00.00	1.03.00
FES_MODE	0
BPM_DEF	246.000	246.000	246.000	246.000
MET_DEF	4	4
RESOLUTION	384
CLK_DEF	384
COMPATIBLE_CODE	MA2

BPM	0	0	246.000
MET	0	0	4	4

TAP	2	96	4
TAP	2	288	4
TAP	3	96	4
TAP	3	288	4
TAP	4	96	3
TAP	4	288	3
TAP	5	96	3
TAP	5	288	3
TAP	5	352	2
TAP	5	352	4
TAP	6	288	4
TAP	6	352	3
TAP	6	352	5
TAP	7	288	3
TAP	7	352	2
TAP	7	352	4
TAP	8	96	4
TAP	8	160	3
TAP	8	160	5
TAP	8	336	0
TAP	8	336	7
TAP	9	32	0
TAP	9	32	7
TAP	9	96	0
TAP	9	96	7
BRK	9	160	1
BRK	9	160	6
TAP	9	352	4
TAP	9	352	6
TAP	10	64	2
TAP	10	96	3
TAP	10	160	3
TAP	10	192	2
TAP	10	288	3
TAP	10	288	4
TAP	10	352	3
TAP	10	352	4
TAP	11	64	5
TAP	11	96	4
TAP	11	160	4
TAP	11	192	5
TAP	11	288	3
TAP	11	288	4
TAP	11	352	3
TAP	11	352	4
TAP	12	64	2
TAP	12	96	3
TAP	12	160	3
TAP	12	256	5
TAP	12	288	4
TAP	12	352	4
TAP	13	64	2
TAP	13	96	3
TAP	13	160	3
TAP	13	192	2
TAP	13	288	3
TAP	13	288	4
TAP	13	352	3
TAP	13	352	4
TAP	14	64	5
TAP	14	96	4
TAP	14	160	4
TAP	14	192	5
TAP	14	288	3
TAP	14	288	4
TAP	14	352	3
TAP	14	352	4
TAP	15	64	2
TAP	15	96	3
TAP	15	160	3
TAP	15	192	2
TAP	15	288	3
TAP	15	288	4
TAP	15	352	3
TAP	15	352	4
TAP	16	64	1
TAP	16	96	0
TAP	16	160	2
TAP	16	160	7
TAP	16	256	6
TAP	16	288	7
BRK	16	352	0
BRK	16	352	5
TAP	17	352	1
TAP	17	352	3
TAP	18	64	5
TAP	18	96	4
TAP	18	160	4
TAP	18	192	5
TAP	18	288	3
TAP	18	288	4
TAP	18	352	4
TAP	18	352	5
TAP	19	64	2
TAP	19	96	3
TAP	19	160	3
TAP	19	192	2
TAP	19	288	3
TAP	19	288	4
TAP	19	352	2
TAP	19	352	3
TAP	20	64	5
TAP	20	96	4
TAP	20	160	4
TAP	20	256	2
TAP	20	288	3
TAP	20	352	3
TAP	21	64	5
TAP	21	96	4
TAP	21	160	4
TAP	21	192	5
TAP	21	288	3
TAP	21	288	4
TAP	21	352	4
TAP	21	352	5
TAP	22	64	2
TAP	22	96	3
TAP	22	160	3
TAP	22	192	2
TAP	22	288	3
TAP	22	288	4
TAP	22	352	4
TAP	22	352	5
TAP	23	64	5
TAP	23	96	4
TAP	23	160	4
TAP	23	192	5
TAP	23	288	3
TAP	23	288	4
TAP	23	352	2
TAP	23	352	3
TAP	24	64	6
TAP	24	96	7
TAP	24	160	0
TAP	24	160	5
TAP	24	256	1
TAP	24	288	0
BRK	24	352	2
BRK	24	352	7
TAP	25	96	5
TAP	25	192	4
TAP	25	288	1
TAP	25	288	3
TAP	26	0	2
TAP	26	96	3
TAP	26	192	4
TAP	26	288	3
TAP	26	288	5
BRK	27	0	2
BRK	27	0	4
HLD	27	192	3	192
TAP	28	0	2
HLD	28	96	2	288
HLD	29	0	1	192
HLD	29	192	0	192
HLD	30	0	4	192
TAP	30	192	5
HLD	30	288	5	192
HLD	31	96	6	192
TAP	31	288	7
TAP	32	0	0
TAP	32	96	1
TAP	32	96	6
TAP	32	192	5
TAP	32	288	3
TAP	32	288	4
TAP	33	0	2
TAP	33	0	5
TAP	33	96	6
TAP	33	192	4
TAP	33	288	3
TAP	34	0	0
TAP	34	0	1
TAP	34	96	5
TAP	34	192	6
TAP	34	192	7
TAP	34	288	2
TAP	35	0	3
TAP	35	0	4
TAP	35	96	0
TAP	35	96	7
TAP	35	192	1
TAP	35	192	6
TAP	35	288	5
TAP	36	0	7
TAP	36	96	0
STR	36	192	2
SUR	36	192	2	96	288	4
TAP	38	0	7
HLD	38	96	1	288
HLD	38	288	6	96
HLD	39	160	0	80
HLD	39	160	5	80
HLD	39	288	3	96
HLD	39	288	6	96
HLD	40	64	1	80
HLD	40	64	4	80
HLD	40	192	2	96
HLD	40	192	7	96
BRK	40	352	1
BRK	40	352	6
HLD	42	0	6	96
HLD	42	96	5	96
HLD	42	192	4	96
HLD	42	288	0	96
HLD	43	0	1	96
HLD	43	96	2	96
HLD	43	192	3	96
BRK	43	288	7
TAP	45	0	5
TAP	45	48	4
TAP	45	144	2
TAP	45	192	3
TAP	45	288	5
TAP	45	336	4
TAP	46	48	2
TAP	46	96	3
TAP	46	192	5
TAP	46	240	4
TAP	46	336	6
TAP	47	0	7
TAP	47	96	1
TAP	47	144	0
TAP	47	240	2
TAP	47	288	3
STR	48	0	5
SI_	48	0	5	96	192	1
TAP	49	0	2
TAP	49	48	3
TAP	49	144	5
TAP	49	192	4
TAP	49	288	2
TAP	49	336	3
TAP	50	48	5
TAP	50	96	4
TAP	50	192	6
TAP	50	240	7
TAP	50	336	1
TAP	51	0	0
TAP	51	96	2
TAP	51	144	3
TAP	51	240	5
STR	51	288	4
SUL	51	288	4	96	288	3
TAP	53	288	7
TAP	53	336	0
TAP	54	48	0
TAP	54	96	1
TAP	54	192	1
TAP	54	240	2
TAP	54	336	2
TAP	55	0	3
TAP	55	96	3
TAP	55	144	4
TAP	55	240	4
TAP	55	288	5
TAP	56	0	5
TAP	56	48	6
TAP	56	144	6
STR	56	192	7
SUR	56	192	7	96	288	0
TAP	57	288	0
TAP	57	336	7
TAP	58	48	7
TAP	58	96	6
TAP	58	192	6
TAP	58	240	5
TAP	58	336	5
TAP	59	0	4
TAP	59	96	4
TAP	59	144	3
TAP	59	240	3
TAP	59	288	2
TAP	60	0	2
TAP	60	48	1
TAP	60	144	1
TAP	60	192	0
TAP	60	288	0
TAP	60	336	7
TAP	61	48	7
TAP	61	96	0
TAP	61	192	5
TAP	61	240	4
TAP	61	288	5
TAP	61	336	4
TAP	62	0	5
TAP	62	96	2
TAP	62	144	3
TAP	62	192	2
TAP	62	240	3
TAP	62	288	2
TAP	63	0	6
TAP	63	48	7
TAP	63	96	6
TAP	63	144	7
TAP	63	192	6
TAP	63	288	1
TAP	63	336	0
TAP	64	0	1
TAP	64	48	0
STR	64	96	1
SUR	64	96	1	96	288	2
TAP	65	192	2
TAP	65	240	3
TAP	65	288	2
TAP	65	336	3
TAP	66	0	2
TAP	66	96	5
TAP	66	144	4
TAP	66	192	5
TAP	66	240	4
TAP	66	288	5
TAP	67	0	1
TAP	67	48	0
TAP	67	96	1
TAP	67	144	0
TAP	67	192	1
TAP	67	288	6
TAP	67	336	7
TAP	68	0	6
TAP	68	48	7
STR	68	96	6
SUL	68	96	6	96	288	5
TAP	69	192	5
TAP	69	240	4
TAP	69	288	6
TAP	69	336	3
TAP	70	0	7
TAP	70	96	2
TAP	70	144	3
TAP	70	192	1
TAP	70	240	4
TAP	70	288	0
TAP	71	0	6
TAP	71	48	7
TAP	71	96	5
TAP	71	144	0
TAP	71	192	4
TAP	71	288	1
TAP	71	336	0
TAP	72	0	2
TAP	72	48	7
TAP	72	96	3
TAP	72	192	4
TAP	72	240	3
TAP	72	288	5
TAP	72	336	2
TAP	73	0	6
TAP	73	48	1
TAP	73	96	7
TAP	73	144	0
STR	73	192	7
SCL	73	192	7	96	288	0
TAP	75	192	1
TAP	75	192	6
TAP	75	256	1
TAP	75	256	6
TAP	75	352	4
TAP	75	352	5
TAP	76	96	1
TAP	76	96	6
TAP	76	160	1
TAP	76	160	6
TAP	76	256	2
TAP	76	256	3
BRK	77	0	1
BRK	77	0	5
HLD	77	160	2	128
HLD	77	288	7	96
HLD	78	0	6	96
HLD	78	96	5	96
HLD	78	192	4	96
HLD	78	288	5	96
HLD	79	0	6	96
HLD	79	96	7	96
HLD	79	192	0	96
HLD	79	288	1	96
HLD	80	0	2	96
TAP	80	96	3
TAP	80	192	4
TAP	80	192	6
TAP	80	256	5
TAP	80	288	4
TAP	81	0	1
TAP	81	0	3
TAP	81	64	2
TAP	81	96	3
TAP	81	160	1
TAP	81	160	3
HLD	81	288	0	96
HLD	82	0	1	96
HLD	82	96	2	96
HLD	82	192	3	96
HLD	82	288	2	96
HLD	83	0	1	96
HLD	83	96	0	96
HLD	83	192	7	96
HLD	83	288	6	96
HLD	84	0	5	96
TAP	84	96	4
TAP	84	192	1
TAP	84	192	3
TAP	84	256	2
TAP	84	288	3
TAP	85	0	4
TAP	85	0	6
TAP	85	64	5
TAP	85	96	4
TAP	85	160	4
TAP	85	160	6
HLD	85	288	1	96
HLD	86	0	0	96
HLD	86	96	7	96
HLD	86	192	6	96
HLD	86	288	5	96
HLD	87	0	6	96
HLD	87	96	7	96
HLD	87	192	0	96
HLD	87	288	1	96
HLD	88	0	2	96
TAP	88	96	3
TAP	88	192	3
TAP	88	192	6
TAP	88	256	5
TAP	88	288	4
TAP	89	0	1
TAP	89	0	4
TAP	89	64	2
TAP	89	96	3
TAP	89	160	1
TAP	89	160	3
HLD	89	288	6	96
HLD	90	0	7	96
HLD	90	96	0	96
HLD	90	192	1	96
HLD	90	288	2	96
STR	91	0	3
SUR	91	0	3	96	192	4
STR	92	0	6
SCL	92	0	6	96	288	7
HLD	93	160	1	128
TAP	93	288	3
TAP	94	0	5
TAP	94	64	5
TAP	94	96	4
TAP	94	192	2
TAP	94	256	2
TAP	94	288	3
TAP	95	0	5
TAP	95	64	5
TAP	95	96	4
TAP	95	192	2
TAP	95	256	2
TAP	95	288	3
TAP	96	0	1
TAP	96	64	1
TAP	96	96	0
TAP	96	192	6
TAP	96	256	6
TAP	96	288	7
TAP	97	0	1
TAP	97	64	1
TAP	97	96	0
TAP	97	160	2
TAP	97	160	7
TAP	97	288	4
TAP	97	288	5
TAP	98	0	2
TAP	98	64	2
TAP	98	96	3
TAP	98	192	5
TAP	98	256	5
TAP	98	288	4
TAP	99	0	2
TAP	99	64	2
TAP	99	96	3
TAP	99	192	5
TAP	99	256	5
TAP	99	288	4
TAP	100	0	6
TAP	100	64	6
TAP	100	96	7
TAP	100	192	1
TAP	100	256	1
TAP	100	288	0
TAP	101	0	6
TAP	101	64	6
TAP	101	96	7
TAP	101	160	0
TAP	101	160	5
TAP	101	288	2
TAP	101	288	3
TAP	102	0	5
TAP	102	64	5
TAP	102	96	4
TAP	102	192	2
TAP	102	256	2
TAP	102	288	3
TAP	103	0	1
TAP	103	64	1
TAP	103	96	3
TAP	103	192	6
TAP	103	256	6
TAP	103	288	4
TAP	104	0	6
TAP	104	64	6
TAP	104	96	7
TAP	104	192	1
TAP	104	256	1
TAP	104	288	0
TAP	105	0	5
TAP	105	64	5
TAP	105	96	4
TAP	105	160	3
TAP	105	160	6
TAP	105	288	2
TAP	105	288	3
TAP	106	0	6
TAP	106	96	4
TAP	106	96	5
TAP	106	192	1
TAP	106	288	2
TAP	106	288	3
TAP	107	0	5
TAP	107	96	4
TAP	107	96	6
TAP	107	192	2
TAP	107	288	1
TAP	107	288	3
TAP	108	0	6
TAP	108	64	6
TAP	108	96	7
TAP	108	192	1
TAP	108	256	1
TAP	108	288	0
TAP	109	0	0
TAP	109	0	7
TAP	109	64	0
TAP	109	64	7
TAP	109	160	1
TAP	109	160	6
TAP	109	256	0
TAP	109	288	7
TAP	109	352	7
TAP	110	0	6
TAP	110	64	6
TAP	110	96	5
TAP	110	160	5
TAP	110	192	4
TAP	110	256	4
TAP	110	288	3
TAP	110	352	3
TAP	111	0	2
TAP	111	64	2
TAP	111	96	1
TAP	111	160	1
HLD	111	192	0	160
HLD	111	352	2	128
HLD	112	96	4	96
STR	112	192	6
SCL	112	192	6	96	144	7
TAP	113	160	4
TAP	113	160	6
TAP	113	256	1
TAP	113	288	3
TAP	113	352	3
TAP	114	0	1
TAP	114	96	3
TAP	114	96	4
TAP	114	160	2
TAP	114	160	3
TAP	114	256	6
TAP	114	288	4
TAP	114	352	4
TAP	115	0	6
TAP	115	96	3
TAP	115	96	4
TAP	115	160	4
TAP	115	160	5
TAP	115	256	1
TAP	115	288	3
TAP	115	352	2
TAP	115	352	4
TAP	116	64	6
TAP	116	96	4
TAP	116	160	3
TAP	116	160	5
TAP	116	256	1
TAP	116	288	3
TAP	116	352	6
TAP	117	0	4
TAP	117	96	3
TAP	117	96	4
TAP	117	160	2
TAP	117	160	3
TAP	117	256	6
TAP	117	288	4
TAP	117	352	4
TAP	118	0	6
TAP	118	96	3
TAP	118	96	4
TAP	118	160	2
TAP	118	160	3
TAP	118	256	1
TAP	118	288	3
TAP	118	352	3
TAP	119	0	1
TAP	119	96	3
TAP	119	96	4
TAP	119	160	2
TAP	119	160	5
TAP	119	288	2
TAP	119	288	3
TAP	119	352	1
TAP	119	352	4
TAP	120	96	6
TAP	120	96	7
TAP	120	160	0
TAP	120	160	5
TAP	120	288	0
TAP	120	288	1
BRK	120	352	2
BRK	120	352	7
TAP	121	96	3
TAP	121	96	4
BRK	121	160	2
BRK	121	160	5
TAP	121	288	0
TAP	121	288	7
BRK	121	352	1
BRK	121	352	6
BRK	122	96	4
BRK	122	96	5
BRK	122	160	3
BRK	122	160	6
BRK	122	288	2
BRK	122	288	3
BRK	122	352	1
BRK	122	352	4
BRK	123	96	0
BRK	123	96	7
BRK	123	160	2
BRK	123	160	5

T_REC_TAP	528
T_REC_BRK	31
T_REC_XTP	0
T_REC_HLD	64
T_REC_XHO	0
T_REC_STR	10
T_REC_BST	0
T_REC_XST	0
T_REC_TTP	0
T_REC_THO	0
T_REC_SLD	10
T_REC_ALL	643
T_NUM_TAP	538
T_NUM_BRK	31
T_NUM_HLD	64
T_NUM_SLD	10
T_NUM_ALL	643
T_JUDGE_TAP	569
T_JUDGE_HLD	78
T_JUDGE_SLD	10
T_JUDGE_ALL	657
TTM_EACHPAIRS	108
TTM_SCR_TAP	269000
TTM_SCR_BRK	80600
TTM_SCR_HLD	64000
TTM_SCR_SLD	15000
TTM_SCR_ALL	428600
TTM_SCR_S	412750
TTM_SCR_SS	425500
TTM_RAT_ACV	10072

