VERSION	0.00.00	1.03.00
FES_MODE	0
BPM_DEF	246.000	246.000	246.000	246.000
MET_DEF	4	4
RESOLUTION	384
CLK_DEF	384
COMPATIBLE_CODE	MA2

BPM	0	0	246.000
MET	0	0	4	4

TAP	6	0	3
TAP	7	0	4
TAP	8	0	3
TAP	8	192	4
TAP	9	0	3
TAP	9	0	4
TAP	10	0	3
TAP	10	192	3
TAP	11	0	2
TAP	11	192	2
TAP	12	0	4
TAP	12	192	4
TAP	13	0	5
TAP	13	192	5
TAP	14	0	3
TAP	14	192	2
TAP	15	0	4
TAP	15	192	5
TAP	16	0	3
TAP	16	0	4
TAP	16	192	2
TAP	16	192	5
TAP	17	0	1
TAP	17	0	6
TAP	18	0	3
TAP	18	96	3
TAP	18	192	3
TAP	19	0	4
TAP	19	96	4
TAP	19	192	4
TAP	20	0	2
TAP	20	96	2
TAP	20	192	2
TAP	21	0	5
TAP	21	96	5
TAP	21	192	5
TAP	22	0	1
TAP	22	96	1
TAP	22	192	1
TAP	23	0	6
TAP	23	96	6
TAP	23	192	6
TAP	24	0	0
TAP	24	96	0
TAP	24	192	7
TAP	24	288	7
STR	25	0	0
SSL	25	0	0	96	384	4
STR	27	0	7
SI_	27	0	7	96	192	3
STR	28	0	0
SI_	28	0	0	96	192	4
STR	29	0	6
SI_	29	0	6	96	192	2
STR	30	0	1
SI_	30	0	1	96	192	5
TAP	31	0	7
TAP	31	288	7
TAP	32	0	7
TAP	32	96	0
TAP	32	192	0
STR	33	0	7
SV_	33	0	7	96	240	4
STR	34	0	0
SV_	34	0	0	96	240	3
STR	35	0	6
SV_	35	0	6	96	240	5
STR	36	0	1
SV_	36	0	1	96	240	2
TAP	37	0	6
TAP	37	192	6
TAP	38	0	1
TAP	38	192	1
HLD	39	0	0	768
HLD	39	0	7	768
STR	41	192	1
SI_	41	192	1	96	192	6
STR	42	192	5
SI_	42	192	5	96	192	2
STR	43	192	0
SSL	43	192	0	96	384	4
TAP	45	0	5
TAP	45	192	5
TAP	46	0	2
TAP	46	192	2
TAP	47	0	4
TAP	47	192	3
TAP	48	0	3
TAP	48	0	4
TAP	49	0	1
TAP	49	192	1
TAP	50	0	6
TAP	50	192	6
TAP	51	0	0
TAP	51	192	7
STR	52	0	0
SCR	52	0	0	96	288	3
STR	52	0	7
SCL	52	0	7	96	288	4
TAP	53	288	3
TAP	54	96	2
TAP	54	288	4
TAP	55	96	5
HLD	55	288	3	192
HLD	56	96	4	192
TAP	56	288	3
TAP	57	288	0
TAP	58	96	1
TAP	58	288	7
TAP	59	96	6
HLD	59	288	0	192
HLD	60	96	7	192
BRK	60	288	0
TAP	61	192	7
TAP	62	0	5
TAP	62	192	3
TAP	63	0	1
TAP	63	192	0
TAP	63	192	7
TAP	64	0	1
TAP	64	0	6
TAP	64	192	2
TAP	64	192	5
TAP	65	192	3
TAP	65	192	4
TAP	66	0	2
TAP	66	0	5
TAP	66	192	1
TAP	66	192	6
TAP	67	0	0
TAP	67	0	7
TAP	67	192	1
TAP	67	192	6
TAP	68	0	1
TAP	68	0	5
BRK	68	192	2
BRK	68	192	6
HLD	69	192	3	192
HLD	69	192	7	192
HLD	70	192	2	192
HLD	70	192	6	192
HLD	71	192	1	192
HLD	71	192	5	192
HLD	72	192	0	192
HLD	72	192	4	192
STR	73	192	0
SI_	73	192	0	96	384	3
STR	73	192	4
SI_	73	192	4	96	384	7
BRK	75	192	2
BRK	75	192	6
BRK	76	96	1
BRK	76	96	5
BRK	77	0	0
BRK	77	0	4
TAP	77	192	0
TAP	77	288	0
TAP	78	0	0
TAP	78	192	7
TAP	78	288	7
TAP	79	0	7
TAP	79	192	1
TAP	79	288	1
TAP	80	0	1
TAP	80	192	6
TAP	80	288	6
TAP	81	0	6
TAP	81	192	3
TAP	81	288	3
TAP	82	0	3
TAP	82	192	4
TAP	82	288	4
TAP	83	0	4
TAP	83	192	2
TAP	83	288	2
TAP	84	0	2
TAP	84	192	5
TAP	84	288	5
BRK	85	0	5
TAP	85	192	1
TAP	85	288	1
TAP	86	0	0
TAP	86	192	6
TAP	86	288	6
TAP	87	0	7
TAP	87	192	0
TAP	87	288	0
TAP	88	0	1
TAP	88	192	7
TAP	88	288	7
TAP	89	0	6
TAP	89	192	5
TAP	89	288	5
TAP	90	0	4
TAP	90	192	2
TAP	90	288	2
TAP	91	0	3
TAP	91	192	4
TAP	91	288	4
TAP	92	0	5
TAP	92	192	3
TAP	92	288	3
BRK	93	0	2
TAP	93	192	0
TAP	93	288	0
TAP	94	0	0
TAP	94	96	0
TAP	94	192	1
TAP	94	288	1
TAP	95	0	1
TAP	95	192	7
TAP	95	288	7
TAP	96	0	7
TAP	96	96	7
TAP	96	192	6
TAP	96	288	6
TAP	97	0	6
TAP	97	192	4
TAP	97	288	4
TAP	98	0	4
TAP	98	96	4
TAP	98	192	5
TAP	98	288	5
TAP	99	0	5
TAP	99	192	3
TAP	99	288	3
TAP	100	0	3
TAP	100	96	3
TAP	100	192	2
TAP	100	288	2
BRK	101	0	2
TAP	101	192	0
TAP	101	288	0
TAP	102	0	1
TAP	102	96	1
TAP	102	192	2
TAP	102	288	2
TAP	103	0	3
TAP	103	192	7
TAP	103	288	7
TAP	104	0	6
TAP	104	96	6
TAP	104	192	5
TAP	104	288	5
TAP	105	0	4
TAP	105	192	3
TAP	105	288	3
TAP	106	0	2
TAP	106	96	2
TAP	106	192	1
TAP	106	288	1
TAP	107	0	0
TAP	107	192	4
TAP	107	288	4
TAP	108	0	5
TAP	108	96	5
TAP	108	192	6
TAP	108	288	6
TAP	109	0	7
TAP	109	96	7
STR	109	192	7
SCL	109	192	7	96	480	0
TAP	111	192	1
TAP	111	192	7
TAP	112	0	0
TAP	112	0	6
TAP	112	192	0
TAP	112	192	7
TAP	112	288	0
TAP	112	288	7
BRK	113	0	0
BRK	113	0	7
TAP	113	192	0
TAP	113	288	1
TAP	114	0	2
TAP	114	192	7
TAP	114	288	6
TAP	115	0	5
TAP	115	192	3
TAP	115	288	2
TAP	116	0	1
TAP	116	192	4
TAP	116	288	5
TAP	117	0	6
TAP	117	192	0
TAP	117	192	7
TAP	117	288	0
TAP	117	288	7
TAP	118	0	0
TAP	118	0	7
TAP	118	192	0
TAP	118	288	0
TAP	119	0	0
BRK	119	96	0
TAP	119	192	7
TAP	119	288	7
TAP	120	0	7
TAP	120	192	1
TAP	120	192	6
TAP	120	288	1
TAP	120	288	6
TAP	121	0	1
TAP	121	0	6
TAP	121	192	0
TAP	121	288	7
TAP	122	0	1
TAP	122	96	6
TAP	122	192	2
TAP	122	288	5
TAP	123	0	3
TAP	123	96	4
BRK	123	192	3
BRK	123	192	4

T_REC_TAP	248
T_REC_BRK	17
T_REC_XTP	0
T_REC_HLD	14
T_REC_XHO	0
T_REC_STR	17
T_REC_BST	0
T_REC_XST	0
T_REC_TTP	0
T_REC_THO	0
T_REC_SLD	17
T_REC_ALL	313
T_NUM_TAP	265
T_NUM_BRK	17
T_NUM_HLD	14
T_NUM_SLD	17
T_NUM_ALL	313
T_JUDGE_TAP	282
T_JUDGE_HLD	40
T_JUDGE_SLD	17
T_JUDGE_ALL	339
TTM_EACHPAIRS	37
TTM_SCR_TAP	132500
TTM_SCR_BRK	44200
TTM_SCR_HLD	14000
TTM_SCR_SLD	25500
TTM_SCR_ALL	216200
TTM_SCR_S	208100
TTM_SCR_SS	214500
TTM_RAT_ACV	10079

