VERSION	0.00.00	1.03.00
FES_MODE	0
BPM_DEF	246.000	246.000	246.000	246.000
MET_DEF	4	4
RESOLUTION	384
CLK_DEF	384
COMPATIBLE_CODE	MA2

BPM	0	0	246.000
MET	0	0	4	4

TAP	10	0	0
TAP	11	0	0
TAP	12	0	1
TAP	13	0	1
TAP	13	192	1
TAP	14	0	2
TAP	15	0	2
TAP	16	0	3
TAP	17	0	3
TAP	17	0	4
TAP	18	0	4
TAP	19	0	4
TAP	20	0	5
TAP	21	0	5
TAP	21	192	5
TAP	22	0	6
TAP	23	0	6
TAP	24	0	7
TAP	25	0	0
TAP	25	0	7
STR	27	0	0
SI_	27	0	0	96	480	4
STR	31	0	7
SI_	31	0	7	96	480	3
STR	35	0	1
SI_	35	0	1	96	480	5
STR	39	0	6
SI_	39	0	6	96	480	2
TAP	43	288	3
TAP	43	288	4
TAP	45	0	3
TAP	45	192	3
TAP	46	0	4
TAP	46	192	4
TAP	47	0	2
TAP	47	192	2
TAP	48	0	5
TAP	48	192	5
TAP	49	0	4
TAP	49	192	4
TAP	50	0	3
TAP	50	192	3
TAP	51	0	2
TAP	51	192	2
TAP	52	0	3
TAP	52	0	4
TAP	53	288	3
TAP	54	96	3
TAP	54	288	5
TAP	55	96	5
TAP	55	288	4
TAP	56	96	4
TAP	56	288	3
TAP	57	96	3
TAP	57	288	2
TAP	58	96	2
TAP	58	288	3
TAP	59	96	3
TAP	59	288	4
TAP	59	288	5
TAP	60	96	4
TAP	60	96	5
STR	61	192	5
SI_	61	192	5	96	480	2
STR	65	192	1
SI_	65	192	1	96	480	6
TAP	69	192	7
TAP	70	192	7
TAP	71	192	0
TAP	72	192	0
BRK	73	192	0
BRK	73	192	7
HLD	75	192	0	288
HLD	75	192	7	288
TAP	77	0	0
TAP	77	0	7
TAP	77	192	0
TAP	78	0	0
TAP	78	192	1
TAP	79	0	1
TAP	79	192	2
TAP	80	0	2
TAP	80	192	3
TAP	80	192	4
TAP	81	192	4
TAP	82	0	4
TAP	82	192	5
TAP	83	0	5
TAP	83	192	6
TAP	84	0	6
TAP	84	192	0
TAP	84	192	7
TAP	85	192	7
TAP	86	0	7
TAP	86	192	6
TAP	87	0	6
TAP	87	192	5
TAP	88	0	5
TAP	88	192	3
TAP	88	192	4
TAP	89	192	3
TAP	90	0	3
TAP	90	192	2
TAP	91	0	2
TAP	91	192	1
TAP	92	0	1
TAP	92	192	0
TAP	92	192	7
HLD	93	192	0	384
HLD	95	192	7	384
TAP	97	192	0
TAP	98	0	0
TAP	98	192	1
TAP	99	0	1
TAP	99	192	2
TAP	100	0	2
TAP	100	192	3
TAP	100	192	4
HLD	101	192	4	384
HLD	103	192	3	384
TAP	105	192	4
TAP	106	0	4
TAP	106	192	5
TAP	107	0	5
TAP	107	192	6
TAP	108	0	6
TAP	108	192	0
TAP	108	192	7
HLD	109	192	0	384
HLD	109	192	7	384
BRK	111	192	0
TAP	113	192	7
TAP	114	192	6
TAP	115	192	5
TAP	116	192	4
TAP	117	0	4
TAP	117	192	3
TAP	117	192	4
TAP	118	192	3
TAP	118	192	4
STR	119	192	4
SI_	119	192	4	96	480	7
STR	122	0	0
SI_	122	0	0	96	480	3

T_REC_TAP	117
T_REC_BRK	3
T_REC_XTP	0
T_REC_HLD	8
T_REC_XHO	0
T_REC_STR	8
T_REC_BST	0
T_REC_XST	0
T_REC_TTP	0
T_REC_THO	0
T_REC_SLD	8
T_REC_ALL	144
T_NUM_TAP	125
T_NUM_BRK	3
T_NUM_HLD	8
T_NUM_SLD	8
T_NUM_ALL	144
T_JUDGE_TAP	128
T_JUDGE_HLD	30
T_JUDGE_SLD	8
T_JUDGE_ALL	166
TTM_EACHPAIRS	18
TTM_SCR_TAP	62500
TTM_SCR_BRK	7800
TTM_SCR_HLD	8000
TTM_SCR_SLD	12000
TTM_SCR_ALL	90300
TTM_SCR_S	87300
TTM_SCR_SS	90000
TTM_RAT_ACV	10033

