VERSION	0.00.00	1.03.00
FES_MODE	0
BPM_DEF	237.000	237.000	237.000	237.000
MET_DEF	4	4
RESOLUTION	384
CLK_DEF	288
COMPATIBLE_CODE	MA2

BPM	0	0	237.000
MET	0	0	4	3

HLD	2	96	0	96
TAP	2	192	4
HLD	2	240	4	432
TAP	3	0	5
TAP	3	96	6
HLD	3	288	0	96
TAP	4	0	5
HLD	4	48	5	432
TAP	4	192	6
TAP	4	288	7
HLD	5	96	0	96
TAP	5	192	6
HLD	5	240	6	432
TAP	6	0	7
TAP	6	96	0
HLD	6	288	0	96
TAP	7	0	7
HLD	7	48	7	144
TAP	7	192	0
TAP	7	208	1
TAP	7	224	2
TAP	7	240	3
TAP	7	256	4
TAP	7	272	5
TAP	7	288	6
TAP	7	304	7
TAP	7	320	0
TAP	7	336	1
TAP	7	352	2
TAP	7	368	3
TAP	8	0	4
TAP	8	16	5
TAP	8	32	6
TAP	8	48	7
TAP	8	64	0
TAP	8	80	1
TAP	8	96	2
STR	8	144	3
SI_	8	144	3	96	48	7
TAP	8	240	3
TAP	8	288	4
TAP	9	0	0
TAP	9	48	0
TAP	9	96	7
TAP	9	144	7
TAP	9	192	6
TAP	9	240	6
TAP	9	288	5
STR	9	336	4
SI_	9	336	4	96	48	0
TAP	10	48	4
TAP	10	96	3
TAP	10	192	7
TAP	10	240	7
TAP	10	288	0
TAP	10	336	0
TAP	11	0	1
TAP	11	48	1
TAP	11	96	2
STR	11	144	3
SI_	11	144	3	96	48	7
TAP	11	240	3
TAP	11	288	4
TAP	12	0	0
TAP	12	48	0
TAP	12	96	7
TAP	12	144	7
TAP	12	192	6
TAP	12	240	6
TAP	12	288	5
TAP	12	336	4
TAP	13	0	6
TAP	13	48	4
TAP	13	96	7
TAP	13	144	7
TAP	13	192	2
TAP	13	240	3
TAP	13	288	1
TAP	13	336	3
STR	14	0	0
SCR	14	0	0	96	384	0
STR	14	48	4
SSL	14	48	4	96	336	0
STR	15	288	1
SI_	15	288	1	96	48	3
TAP	16	0	1
STR	16	0	7
SI_	16	0	7	96	48	5
STR	16	96	0
SI_	16	96	0	96	48	4
TAP	16	96	7
TAP	16	192	0
TAP	16	288	6
TAP	16	336	2
TAP	17	48	0
TAP	17	48	4
STR	17	96	6
SI_	17	96	6	96	48	4
STR	17	192	0
SI_	17	192	0	96	48	2
TAP	17	192	6
TAP	17	288	0
STR	17	288	7
SI_	17	288	7	96	48	3
TAP	18	0	7
TAP	18	96	1
TAP	18	144	5
TAP	18	240	3
TAP	18	240	7
STR	18	288	1
SI_	18	288	1	96	48	5
TAP	19	0	1
STR	19	0	7
SI_	19	0	7	96	48	3
STR	19	96	0
SI_	19	96	0	96	48	4
TAP	19	96	7
TAP	19	192	0
TAP	19	288	6
TAP	19	336	2
TAP	20	48	0
TAP	20	48	4
TAP	20	96	2
TAP	20	144	7
TAP	20	192	2
TAP	20	240	5
TAP	20	288	0
TAP	20	336	5
TAP	21	0	1
TAP	21	48	3
TAP	21	96	1
TAP	21	144	6
TAP	21	192	4
TAP	21	240	6
STR	21	288	5
SI_	21	288	5	96	48	3
STR	22	0	1
SI_	22	0	1	96	48	7
TAP	22	0	5
TAP	22	96	1
STR	22	96	6
SI_	22	96	6	96	48	2
TAP	22	192	6
TAP	22	288	0
TAP	22	336	4
TAP	23	48	1
TAP	23	48	7
STR	23	96	2
SI_	23	96	2	96	48	4
TAP	23	192	2
STR	23	192	6
SI_	23	192	6	96	48	0
STR	23	288	1
SI_	23	288	1	96	48	5
TAP	23	288	6
TAP	24	0	1
TAP	24	96	7
TAP	24	144	3
TAP	24	240	2
TAP	24	240	4
STR	24	288	6
SI_	24	288	6	96	48	2
STR	25	0	0
SI_	25	0	0	96	48	4
TAP	25	0	6
TAP	25	96	0
STR	25	96	7
SI_	25	96	7	96	48	3
TAP	25	192	7
TAP	25	288	1
TAP	25	336	5
TAP	26	48	3
TAP	26	48	7
TAP	26	96	0
TAP	26	96	4
TAP	26	144	2
TAP	26	144	6
TAP	26	336	3
TAP	26	336	7
TAP	27	0	1
TAP	27	0	5
STR	27	288	7
SI_	27	288	7	96	48	3
TAP	27	336	6
TAP	28	0	5
STR	28	48	4
SI_	28	48	4	96	48	0
TAP	28	96	3
TAP	28	144	2
STR	28	192	1
SI_	28	192	1	96	48	5
TAP	28	240	0
TAP	28	288	7
STR	28	336	6
SI_	28	336	6	96	48	2
TAP	29	0	5
TAP	29	48	4
HLD	29	96	3	96
STR	29	192	2
SCL	29	192	2	96	144	5
STR	29	240	2
SUL	29	240	2	96	96	5
STR	30	288	4
SI_	30	288	4	96	48	0
TAP	30	336	5
TAP	31	0	6
STR	31	48	7
SI_	31	48	7	96	48	3
TAP	31	96	0
TAP	31	144	1
STR	31	192	2
SI_	31	192	2	96	48	6
TAP	31	240	3
TAP	31	288	4
STR	31	336	5
SI_	31	336	5	96	48	1
TAP	32	0	6
TAP	32	48	7
STR	32	96	0
SSL	32	96	0	96	144	4
TAP	33	0	2
TAP	33	48	3
TAP	33	96	4
TAP	33	144	5
TAP	33	192	6
TAP	33	240	7
STR	33	288	0
SI_	33	288	0	96	48	4
TAP	33	336	1
TAP	34	0	2
STR	34	48	3
SI_	34	48	3	96	48	7
TAP	34	96	4
TAP	34	144	5
STR	34	192	6
SI_	34	192	6	96	48	2
TAP	34	240	7
TAP	34	288	0
STR	34	336	1
SI_	34	336	1	96	48	5
TAP	35	0	2
TAP	35	48	3
HLD	35	96	4	96
STR	35	192	5
SCR	35	192	5	96	144	2
STR	35	240	5
SUR	35	240	5	96	96	2
TAP	36	144	4
TAP	36	192	1
TAP	36	240	6
TAP	36	288	3
TAP	36	336	7
STR	37	0	1
SI_	37	0	1	96	48	5
STR	37	48	5
SI_	37	48	5	96	48	1
TAP	37	96	6
TAP	37	144	6
TAP	37	192	4
TAP	37	240	0
STR	37	288	6
SI_	37	288	6	96	48	2
STR	37	336	2
SI_	37	336	2	96	48	6
TAP	38	0	1
TAP	38	48	1
TAP	38	96	3
TAP	38	144	7
TAP	38	192	1
TAP	38	240	5
STR	38	288	0
SI_	38	288	0	96	48	4
TAP	38	288	4
TAP	39	0	0
STR	39	0	7
SI_	39	0	7	96	48	3
TAP	39	96	3
TAP	39	96	7
STR	39	288	1
SSR	39	288	1	96	96	5
TAP	40	48	6
STR	40	96	7
SI_	40	96	7	96	48	3
STR	40	192	7
SCR	40	192	7	96	96	2
STR	40	288	2
SCR	40	288	2	96	96	5
STR	41	0	5
SCR	41	0	5	96	96	0
STR	41	96	0
SSL	41	96	0	96	96	4
TAP	41	240	7
STR	41	288	6
SI_	41	288	6	96	48	2
TAP	42	0	1
TAP	42	96	3
TAP	42	144	3
TAP	42	192	4
TAP	42	240	5
STR	42	288	6
SSL	42	288	6	96	96	2
TAP	43	48	1
STR	43	96	0
SI_	43	96	0	96	48	4
STR	43	192	0
SCL	43	192	0	96	96	5
STR	43	288	5
SCL	43	288	5	96	96	2
STR	44	0	2
SCL	44	0	2	96	96	7
STR	44	96	7
SSR	44	96	7	96	96	3
TAP	44	240	0
STR	44	288	1
SI_	44	288	1	96	48	5
TAP	45	0	6
TAP	45	96	4
TAP	45	144	4
TAP	45	192	3
TAP	45	240	2
STR	45	288	1
SSR	45	288	1	96	96	5
TAP	46	48	6
STR	46	96	7
SI_	46	96	7	96	48	3
STR	46	192	7
SCR	46	192	7	96	96	2
STR	46	288	2
SCR	46	288	2	96	96	5
STR	47	0	5
SCR	47	0	5	96	96	0
STR	47	96	0
SSL	47	96	0	96	96	4
TAP	47	240	7
STR	47	288	6
SI_	47	288	6	96	48	2
TAP	48	0	1
TAP	48	96	3
TAP	48	144	3
TAP	48	192	4
TAP	48	240	5
STR	48	288	6
SSL	48	288	6	96	96	2
TAP	49	48	1
STR	49	96	0
SI_	49	96	0	96	48	4
TAP	49	192	0
STR	49	192	7
SI_	49	192	7	96	48	3
TAP	49	288	3
TAP	49	288	7
TAP	50	0	0
TAP	50	0	4
TAP	50	96	1
TAP	50	144	2
TAP	50	192	3
STR	50	240	4
SI_	50	240	4	96	48	0
TAP	50	336	4
TAP	50	336	7
TAP	51	0	6
TAP	51	48	5
TAP	51	96	4
STR	51	144	3
SI_	51	144	3	96	48	7
TAP	51	240	0
TAP	51	240	3
TAP	51	288	1
TAP	51	336	6
TAP	52	0	3
HLD	52	48	4	96
TAP	52	144	0
TAP	52	192	1
TAP	52	240	2
TAP	52	240	3
TAP	52	336	4
TAP	52	336	5
TAP	53	48	0
TAP	53	48	7
TAP	53	96	6
TAP	53	144	1
TAP	53	192	4
HLD	53	240	3	96
TAP	53	336	7
TAP	54	0	6
TAP	54	48	4
TAP	54	48	5
TAP	54	144	2
TAP	54	144	3
TAP	54	240	0
TAP	54	240	7
TAP	54	288	1
TAP	54	336	6
TAP	55	0	3
HLD	55	48	4	96
TAP	55	144	0
TAP	55	192	1
TAP	55	240	2
TAP	55	240	7
TAP	55	336	0
TAP	55	336	5
TAP	56	48	1
TAP	56	48	6
TAP	56	96	5
STR	56	144	2
SI_	56	144	2	96	48	5
TAP	56	240	2
STR	56	240	6
SI_	56	240	6	96	48	1
STR	56	336	0
SI_	56	336	0	96	48	3
TAP	56	336	6
TAP	57	48	0
STR	57	48	4
SI_	57	48	4	96	48	7
STR	57	144	1
SSR	57	144	1	96	144	5
TAP	57	144	4
TAP	57	240	1
HLD	57	288	6	192
STR	58	96	4
SCR	58	96	4	96	96	7
STR	58	192	7
SI_	58	192	7	96	96	3
STR	58	288	3
SCL	58	288	3	96	96	0
STR	59	0	0
SSL	59	0	0	96	192	4
HLD	59	96	3	192
TAP	60	0	0
TAP	60	0	7
HLD	60	96	2	96
HLD	60	192	5	96
HLD	60	288	3	96
HLD	61	0	1	96
HLD	61	96	7	96
HLD	61	192	4	96
HLD	61	288	6	96
HLD	62	0	0	96
TAP	62	96	7
TAP	62	144	3
TAP	62	192	0
TAP	62	240	4
TAP	62	288	1
TAP	62	336	5
TAP	63	0	2
TAP	63	48	6
TAP	63	96	3
TAP	63	144	7
STR	63	192	4
SI_	63	192	4	96	48	0
TAP	63	240	0
TAP	63	288	4
TAP	64	48	1
TAP	64	48	7
TAP	64	144	6
TAP	64	192	4
TAP	64	192	5
TAP	64	288	2
TAP	64	288	3
STR	65	0	3
SI_	65	0	3	96	48	7
TAP	65	0	4
TAP	65	96	3
TAP	65	96	7
TAP	65	240	0
TAP	65	240	6
TAP	65	336	5
TAP	66	0	1
TAP	66	0	4
TAP	66	96	3
TAP	66	96	6
TAP	66	192	2
STR	66	192	5
SUR	66	192	5	96	96	2
TAP	66	288	2
TAP	66	288	5
TAP	67	48	0
TAP	67	48	7
TAP	67	144	3
TAP	67	192	4
TAP	67	288	0
TAP	67	288	1
TAP	68	0	6
STR	68	0	7
SSR	68	0	7	96	144	3
BRK	68	96	3
BRK	68	96	7
TAP	69	0	0
TAP	69	0	4
TAP	69	48	0
TAP	69	48	4
TAP	69	96	0
TAP	69	96	4
TAP	69	144	0
TAP	69	144	4
TAP	69	192	2
TAP	69	192	6
TAP	69	288	1
TAP	69	336	1
TAP	70	0	3
TAP	70	48	3
TAP	70	96	2
TAP	70	144	2
TAP	70	192	6
TAP	70	240	6
TAP	70	288	4
TAP	70	336	4
TAP	71	0	5
TAP	71	48	5
TAP	71	96	0
TAP	71	144	0
TAP	71	192	7
TAP	71	240	7
TAP	71	288	1
TAP	71	336	1
TAP	72	0	6
TAP	72	48	5
TAP	72	48	7
TAP	72	144	0
TAP	72	144	4
TAP	72	240	1
TAP	72	240	3
TAP	72	288	2
TAP	72	336	2
TAP	73	0	3
TAP	73	48	3
TAP	73	96	1
TAP	73	144	1
TAP	73	192	5
TAP	73	240	5
TAP	73	288	4
TAP	73	336	4
TAP	74	0	6
TAP	74	48	6
TAP	74	96	0
TAP	74	144	0
TAP	74	192	7
TAP	74	240	7
TAP	74	288	1
TAP	74	336	1
TAP	75	0	0
TAP	75	0	2
TAP	75	96	5
TAP	75	96	7
TAP	75	192	1
TAP	75	192	6
TAP	75	288	5
TAP	75	336	5
TAP	76	0	7
TAP	76	48	7
TAP	76	96	3
TAP	76	144	3
TAP	76	192	2
TAP	76	240	2
TAP	76	288	0
TAP	76	336	0
TAP	77	0	4
TAP	77	48	4
TAP	77	96	6
TAP	77	144	6
TAP	77	192	2
TAP	77	240	2
TAP	77	288	4
TAP	77	336	4
TAP	78	0	0
TAP	78	48	1
TAP	78	48	7
TAP	78	144	3
TAP	78	144	4
TAP	78	240	0
TAP	78	240	6
TAP	78	288	7
TAP	78	336	7
TAP	79	0	5
TAP	79	48	5
TAP	79	96	4
TAP	79	144	4
TAP	79	192	3
TAP	79	240	3
TAP	79	288	2
TAP	79	336	2
TAP	80	0	0
TAP	80	48	0
TAP	80	96	3
TAP	80	96	7
TAP	80	144	3
TAP	80	144	7
TAP	80	192	0
TAP	80	192	4
TAP	80	240	0
TAP	80	240	4
TAP	80	288	1
TAP	80	288	5
TAP	80	336	1
TAP	80	336	5
TAP	81	0	2
TAP	81	0	6
TAP	81	48	2
TAP	81	48	6
TAP	81	96	3
TAP	81	96	7
TAP	81	144	3
TAP	81	144	7
TAP	81	192	0
STR	81	192	4
SUL	81	192	4	96	864	2
STR	81	240	0
SUL	81	240	0	96	816	6
TAP	81	240	4
TAP	84	288	1
TAP	84	336	4
TAP	85	0	3
HLD	85	48	6	96
TAP	85	144	7
TAP	85	192	5
TAP	85	240	3
TAP	85	240	4
HLD	85	336	2	96
TAP	86	48	0
TAP	86	96	6
TAP	86	144	3
TAP	86	192	4
HLD	86	240	1	96
TAP	86	336	0
TAP	87	0	2
TAP	87	48	3
TAP	87	48	4
HLD	87	144	5	96
TAP	87	240	7
TAP	87	288	1
TAP	87	336	4
TAP	88	0	3
HLD	88	48	6	96
TAP	88	144	7
TAP	88	192	5
TAP	88	240	3
TAP	88	240	4
HLD	88	336	2	96
TAP	89	48	0
TAP	89	96	1
TAP	89	144	2
TAP	89	144	3
TAP	89	240	4
TAP	89	240	5
TAP	89	336	1
TAP	89	336	3
TAP	90	48	4
TAP	90	48	6
TAP	90	144	0
TAP	90	144	7
TAP	90	240	1
TAP	90	288	2
HLD	90	288	3	144
TAP	91	48	2
TAP	91	192	1
TAP	91	192	4
TAP	91	288	0
TAP	91	288	5
TAP	92	0	6
TAP	92	0	7
HLD	92	96	4	144
TAP	92	96	5
TAP	92	240	5
TAP	93	0	3
TAP	93	0	6
TAP	93	96	2
TAP	93	96	7
TAP	93	192	0
TAP	93	192	1
TAP	93	288	2
HLD	93	288	3	144
HLD	94	48	4	144
TAP	94	192	6
TAP	94	288	1
TAP	94	288	3
TAP	95	0	0
TAP	95	0	7
STR	95	96	3
SI_	95	96	3	96	48	6
TAP	95	96	4
TAP	95	192	3
STR	95	192	4
SI_	95	192	4	96	48	1
TAP	95	288	4
STR	95	288	6
SCR	95	288	6	96	48	1
TAP	96	0	6
TAP	96	96	3
TAP	96	96	4
TAP	96	192	0
TAP	96	192	7
STR	96	288	1
SUR	96	288	1	96	96	6
TAP	96	336	6
TAP	97	0	5
HLD	97	48	4	96
TAP	97	144	0
TAP	97	192	1
TAP	97	240	2
TAP	97	240	3
TAP	97	336	5
TAP	97	336	6
TAP	98	48	0
TAP	98	48	7
STR	98	96	6
SUL	98	96	6	96	96	1
TAP	98	144	1
TAP	98	192	2
HLD	98	240	3	96
TAP	98	336	7
TAP	99	0	6
TAP	99	48	4
TAP	99	48	5
TAP	99	144	1
TAP	99	144	2
TAP	99	240	0
TAP	99	240	7
STR	99	288	2
SUL	99	288	2	96	96	5
TAP	99	336	5
TAP	100	0	6
HLD	100	48	7	96
TAP	100	144	0
TAP	100	192	1
TAP	100	240	2
TAP	100	240	3
TAP	100	336	5
TAP	100	336	6
TAP	101	48	0
TAP	101	48	7
TAP	101	96	1
TAP	101	144	2
TAP	101	144	4
TAP	101	240	3
TAP	101	240	6
TAP	101	336	1
TAP	101	336	5
TAP	102	48	2
TAP	102	48	7
TAP	102	144	0
TAP	102	144	4
TAP	102	240	2
TAP	102	240	6
STR	102	288	7
SI_	102	288	7	96	48	2
TAP	102	336	7
STR	103	0	0
SI_	103	0	0	96	48	5
TAP	103	48	0
STR	103	96	6
SI_	103	96	6	96	48	1
TAP	103	144	6
STR	103	192	2
SI_	103	192	2	96	48	6
TAP	103	240	2
TAP	103	288	2
STR	103	288	5
SI_	103	288	5	96	48	1
TAP	103	336	5
BRK	104	0	2
TAP	104	0	5
STR	104	96	0
SI_	104	96	0	96	48	4
TAP	104	144	0
STR	104	192	7
SI_	104	192	7	96	48	3
TAP	104	240	7
STR	104	288	2
SV_	104	288	2	96	48	5
TAP	104	336	2
STR	105	0	6
SI_	105	0	6	96	48	3
TAP	105	48	6
STR	105	96	1
SI_	105	96	1	96	48	4
TAP	105	96	6
TAP	105	144	1
TAP	105	192	1
BRK	105	192	6
STR	105	288	7
SI_	105	288	7	96	48	5
TAP	105	336	7
STR	106	0	0
SI_	106	0	0	96	48	4
TAP	106	48	0
STR	106	96	6
SI_	106	96	6	96	48	3
TAP	106	144	6
STR	106	192	0
SI_	106	192	0	96	48	2
TAP	106	240	0
STR	106	288	7
SI_	106	288	7	96	48	3
TAP	106	336	7
STR	107	0	1
SI_	107	0	1	96	48	4
TAP	107	48	1
STR	107	96	6
SI_	107	96	6	96	48	2
TAP	107	144	6
STR	107	192	0
SI_	107	192	0	96	48	4
TAP	107	240	0
STR	107	288	7
SI_	107	288	7	96	48	3
TAP	107	336	7
STR	108	0	1
SI_	108	0	1	96	48	5
TAP	108	48	1
TAP	108	96	7
TAP	108	144	7
TAP	108	192	3
TAP	108	192	7
TAP	108	288	2
TAP	108	288	6
TAP	108	336	1
TAP	108	336	5
TAP	109	0	0
TAP	109	0	4
STR	109	48	3
SCR	109	48	3	96	48	6
TAP	109	48	7
TAP	109	144	1
TAP	109	192	0
STR	109	240	7
SI_	109	240	7	96	48	3
TAP	109	336	3
TAP	109	336	7
TAP	110	48	0
TAP	110	48	4
TAP	110	96	1
TAP	110	96	5
TAP	110	144	2
TAP	110	144	6
TAP	110	192	3
TAP	110	192	7
TAP	110	240	0
STR	110	240	4
SCL	110	240	4	96	48	1
TAP	110	336	6
TAP	111	0	7
STR	111	48	0
SI_	111	48	0	96	48	4
TAP	111	144	0
TAP	111	144	4
TAP	111	240	3
TAP	111	240	7
TAP	111	288	2
TAP	111	288	6
TAP	111	336	2
TAP	111	336	6
TAP	112	0	1
TAP	112	0	5
TAP	112	48	1
TAP	112	48	5
TAP	112	96	0
TAP	112	96	4
TAP	112	144	0
TAP	112	144	4
TAP	112	192	3
TAP	112	216	2
TAP	112	240	1
TAP	112	264	0
TAP	112	288	7
TAP	112	312	6
TAP	112	336	5
TAP	112	360	4
TAP	113	0	0
TAP	113	12	1
TAP	113	24	2
TAP	113	36	3
TAP	113	48	4
TAP	113	60	5
TAP	113	72	6
TAP	113	84	7
TAP	113	96	0
TAP	113	96	4
STR	113	144	1
SI_	113	144	1	96	48	6
STR	113	144	5
SI_	113	144	5	96	48	2
TAP	113	240	1
TAP	113	240	5
BRK	113	336	3
BRK	113	336	7
BRK	114	0	1
BRK	114	0	5

T_REC_TAP	606
T_REC_BRK	8
T_REC_XTP	0
T_REC_HLD	36
T_REC_XHO	0
T_REC_STR	119
T_REC_BST	0
T_REC_XST	0
T_REC_TTP	0
T_REC_THO	0
T_REC_SLD	119
T_REC_ALL	888
T_NUM_TAP	725
T_NUM_BRK	8
T_NUM_HLD	36
T_NUM_SLD	119
T_NUM_ALL	888
T_JUDGE_TAP	733
T_JUDGE_HLD	102
T_JUDGE_SLD	119
T_JUDGE_ALL	954
TTM_EACHPAIRS	151
TTM_SCR_TAP	362500
TTM_SCR_BRK	20800
TTM_SCR_HLD	36000
TTM_SCR_SLD	178500
TTM_SCR_ALL	597800
TTM_SCR_S	579100
TTM_SCR_SS	597000
TTM_RAT_ACV	10013

