VERSION	0.00.00	1.03.00
FES_MODE	0
BPM_DEF	237.000	237.000	237.000	237.000
MET_DEF	4	4
RESOLUTION	384
CLK_DEF	288
COMPATIBLE_CODE	MA2

BPM	0	0	237.000
MET	0	0	4	3

HLD	2	96	0	96
TAP	2	192	7
TAP	2	240	0
TAP	3	0	1
TAP	3	0	6
TAP	3	96	1
TAP	3	96	6
HLD	3	288	7	96
TAP	4	0	0
TAP	4	48	7
TAP	4	192	1
TAP	4	192	6
TAP	4	288	1
TAP	4	288	6
HLD	5	96	2	96
TAP	5	192	3
TAP	5	240	2
TAP	6	0	1
TAP	6	0	4
TAP	6	96	2
TAP	6	96	3
HLD	6	288	5	96
TAP	7	0	4
TAP	7	48	5
BRK	7	192	3
BRK	7	192	6
TAP	8	96	2
TAP	8	96	5
TAP	8	192	3
TAP	8	240	4
TAP	8	336	4
TAP	9	0	3
TAP	9	96	2
TAP	9	96	5
TAP	9	192	2
TAP	9	192	5
TAP	9	288	1
TAP	9	288	6
TAP	10	0	7
TAP	10	48	0
TAP	10	144	0
STR	10	192	7
SI_	10	192	7	96	96	3
TAP	11	96	2
TAP	11	96	3
TAP	11	192	7
TAP	11	240	0
TAP	11	336	0
TAP	12	0	7
TAP	12	96	4
TAP	12	96	5
TAP	12	192	0
TAP	12	192	7
TAP	12	288	2
TAP	12	288	3
TAP	13	0	5
TAP	13	48	4
TAP	13	144	3
TAP	13	192	4
TAP	13	288	1
TAP	13	336	3
TAP	14	0	2
TAP	14	48	4
STR	14	96	3
SUL	14	96	3	96	192	4
STR	15	288	0
SCR	15	288	0	96	144	3
STR	16	0	7
SUR	16	0	7	96	144	4
STR	17	96	3
SUR	17	96	3	96	144	0
STR	17	192	4
SCR	17	192	4	96	144	7
STR	18	288	0
SUL	18	288	0	96	144	2
STR	19	0	7
SUR	19	0	7	96	144	5
TAP	20	96	1
TAP	20	96	5
TAP	20	240	2
TAP	20	240	6
TAP	21	0	3
TAP	21	0	7
BRK	21	144	0
BRK	21	144	4
STR	21	288	7
SCL	21	288	7	96	144	4
STR	22	0	3
SCL	22	0	3	96	144	0
STR	23	96	0
SV_	23	96	0	96	96	1
STR	23	192	4
SV_	23	192	4	96	96	5
STR	24	288	1
SCR	24	288	1	96	144	4
STR	25	0	5
SCR	25	0	5	96	144	0
STR	26	96	0
SUR	26	96	0	96	192	4
STR	26	96	4
SUR	26	96	4	96	192	0
HLD	27	288	6	96
TAP	28	0	5
HLD	28	48	5	96
TAP	28	144	4
HLD	28	192	4	96
TAP	28	288	3
HLD	28	336	3	96
TAP	29	48	2
STR	29	96	2
SI_	29	96	2	96	96	5
STR	30	0	6
SI_	30	0	6	96	96	1
HLD	30	288	1	96
TAP	31	0	2
HLD	31	48	2	96
TAP	31	144	3
HLD	31	192	3	96
TAP	31	288	4
HLD	31	336	4	96
TAP	32	48	5
TAP	32	96	5
TAP	32	192	2
TAP	32	192	3
TAP	32	240	2
TAP	32	240	3
TAP	33	0	4
TAP	33	0	5
TAP	33	96	2
TAP	33	96	3
BRK	33	192	4
BRK	33	192	5
HLD	33	288	1	96
TAP	34	0	4
HLD	34	48	6	96
TAP	34	144	3
HLD	34	192	1	96
TAP	34	288	3
HLD	34	336	6	96
TAP	35	48	4
STR	35	96	1
SI_	35	96	1	96	96	4
STR	36	0	6
SI_	36	0	6	96	96	3
HLD	36	288	1	96
TAP	37	0	3
HLD	37	48	7	96
TAP	37	144	5
HLD	37	192	1	96
TAP	37	288	3
HLD	37	336	7	96
TAP	38	48	5
HLD	38	96	0	192
HLD	38	192	7	96
BRK	39	0	1
BRK	39	0	6
BRK	39	96	0
BRK	39	96	7
TAP	39	288	1
TAP	39	288	2
TAP	40	0	1
TAP	40	0	3
TAP	40	96	1
TAP	40	96	4
TAP	40	192	5
TAP	40	192	6
TAP	40	288	4
TAP	40	288	6
TAP	41	0	3
TAP	41	0	6
TAP	41	96	1
TAP	41	96	2
TAP	41	192	2
TAP	41	192	3
TAP	41	288	3
TAP	41	288	4
TAP	42	0	5
TAP	42	0	6
TAP	42	96	4
TAP	42	96	5
TAP	42	192	3
TAP	42	192	4
TAP	42	288	1
TAP	42	288	3
TAP	43	0	2
TAP	43	0	4
TAP	43	96	3
TAP	43	96	5
TAP	43	192	4
TAP	43	192	6
TAP	43	288	3
TAP	43	288	5
TAP	44	0	2
TAP	44	0	4
STR	44	96	1
SCR	44	96	1	96	72	4
STR	44	192	6
SCL	44	192	6	96	72	3
BRK	45	0	1
TAP	45	288	0
TAP	45	288	1
TAP	46	0	1
TAP	46	0	2
TAP	46	96	2
TAP	46	96	3
TAP	46	192	6
TAP	46	192	7
TAP	46	288	5
TAP	46	288	6
TAP	47	0	4
TAP	47	0	5
TAP	47	96	0
TAP	47	96	1
TAP	47	192	1
TAP	47	192	2
TAP	47	288	2
TAP	47	288	3
TAP	48	0	6
TAP	48	0	7
TAP	48	96	5
TAP	48	96	6
TAP	48	192	4
TAP	48	192	5
TAP	48	288	0
TAP	48	288	1
TAP	49	0	2
TAP	49	0	3
TAP	49	96	4
TAP	49	96	5
TAP	49	192	6
TAP	49	192	7
TAP	49	288	4
TAP	49	288	5
TAP	50	0	2
TAP	50	0	3
STR	50	96	0
SCL	50	96	0	96	192	5
STR	50	96	1
SCR	50	96	1	96	192	4
HLD	51	288	0	288
TAP	52	48	1
HLD	52	192	1	288
TAP	52	336	2
HLD	53	96	2	288
TAP	53	240	3
HLD	54	0	3	288
TAP	54	144	4
HLD	54	288	4	288
TAP	55	48	5
HLD	55	192	5	144
TAP	55	336	6
TAP	56	96	7
TAP	56	144	6
HLD	56	240	0	96
HLD	56	336	4	96
HLD	57	48	2	96
BRK	57	144	6
TAP	57	288	0
TAP	57	288	4
TAP	58	0	0
TAP	58	0	4
TAP	58	192	1
TAP	58	192	5
TAP	58	288	1
TAP	58	288	5
TAP	59	96	2
TAP	59	96	6
TAP	59	192	2
TAP	59	192	6
TAP	60	0	3
TAP	60	0	7
TAP	60	96	3
TAP	60	96	7
TAP	60	288	0
TAP	60	288	4
TAP	61	0	0
TAP	61	0	4
TAP	61	96	0
TAP	61	96	4
TAP	61	192	2
TAP	61	192	6
TAP	61	288	2
TAP	61	288	6
TAP	62	0	2
TAP	62	0	6
TAP	62	96	3
TAP	62	96	7
TAP	62	192	3
TAP	62	192	7
TAP	62	288	3
TAP	62	288	7
BRK	63	0	1
BRK	63	0	5
STR	63	288	2
SUR	63	288	2	96	864	5
STR	66	288	6
SUR	66	288	6	96	384	1
HLD	68	96	0	288
TAP	69	0	4
TAP	69	48	4
TAP	69	96	4
TAP	69	144	3
TAP	69	192	3
TAP	69	240	3
TAP	69	288	5
TAP	70	0	4
TAP	70	96	5
TAP	70	192	2
TAP	70	288	3
TAP	71	0	2
TAP	71	96	6
TAP	71	192	4
TAP	71	288	6
TAP	72	0	1
TAP	72	96	3
TAP	72	192	1
TAP	72	288	6
TAP	73	0	7
TAP	73	96	6
TAP	73	192	1
TAP	73	288	0
TAP	74	0	1
TAP	74	96	7
TAP	74	192	0
TAP	74	288	7
TAP	75	0	0
TAP	75	0	7
TAP	75	96	0
TAP	75	96	7
TAP	75	192	0
TAP	75	192	7
HLD	75	288	2	192
TAP	76	0	3
TAP	76	96	4
HLD	76	192	5	192
TAP	76	288	4
TAP	77	0	3
HLD	77	96	1	192
TAP	77	192	2
TAP	77	288	3
HLD	78	0	6	192
TAP	78	96	5
TAP	78	192	4
HLD	78	288	1	192
TAP	79	0	0
TAP	79	96	0
HLD	79	192	6	192
TAP	79	288	7
TAP	80	0	7
HLD	80	96	0	192
TAP	80	192	7
TAP	80	288	7
TAP	81	0	1
TAP	81	0	6
TAP	81	96	1
TAP	81	96	6
BRK	81	192	1
BRK	81	192	6
TAP	84	288	0
TAP	84	288	1
TAP	85	48	4
TAP	85	48	5
TAP	85	192	6
TAP	85	192	7
TAP	85	336	2
TAP	85	336	3
TAP	86	96	0
TAP	86	96	7
TAP	86	240	3
TAP	86	240	4
TAP	87	0	1
TAP	87	0	2
TAP	87	144	5
TAP	87	144	6
TAP	87	288	0
TAP	87	288	1
TAP	88	48	2
TAP	88	48	3
TAP	88	192	4
TAP	88	192	5
TAP	88	336	6
TAP	88	336	7
TAP	89	96	3
TAP	89	144	4
TAP	89	240	3
TAP	89	336	3
TAP	90	48	1
TAP	90	144	1
TAP	90	240	1
HLD	90	288	7	144
TAP	91	48	0
TAP	91	192	1
TAP	91	192	6
TAP	91	288	1
TAP	91	288	6
TAP	92	0	1
TAP	92	0	6
HLD	92	96	1	144
TAP	92	240	6
TAP	93	0	2
TAP	93	0	5
TAP	93	96	2
TAP	93	96	5
TAP	93	192	2
TAP	93	192	5
HLD	93	288	5	144
TAP	94	48	2
TAP	94	192	3
TAP	94	192	4
TAP	94	288	3
TAP	94	288	4
TAP	95	0	3
TAP	95	0	4
HLD	95	96	0	432
TAP	95	240	7
HLD	96	0	7	144
TAP	96	288	1
TAP	96	288	2
TAP	97	0	1
TAP	97	0	3
TAP	97	96	1
TAP	97	96	4
TAP	97	192	5
TAP	97	192	6
TAP	97	288	4
TAP	97	288	6
TAP	98	0	3
TAP	98	0	6
TAP	98	96	1
TAP	98	96	2
TAP	98	192	2
TAP	98	192	3
TAP	98	288	3
TAP	98	288	4
TAP	99	0	5
TAP	99	0	6
TAP	99	96	4
TAP	99	96	5
TAP	99	192	3
TAP	99	192	4
TAP	99	288	1
TAP	99	288	3
TAP	100	0	2
TAP	100	0	4
TAP	100	96	3
TAP	100	96	5
TAP	100	192	4
TAP	100	192	6
TAP	100	288	3
TAP	100	288	5
TAP	101	0	2
TAP	101	0	4
TAP	101	96	2
TAP	101	96	3
TAP	101	144	2
TAP	101	144	3
TAP	101	240	4
TAP	101	240	5
TAP	101	336	0
TAP	101	336	7
TAP	102	48	1
TAP	102	48	6
TAP	102	144	3
TAP	102	144	4
TAP	102	240	6
TAP	102	288	1
TAP	103	0	3
TAP	103	96	2
TAP	103	192	6
TAP	103	288	4
TAP	104	0	5
TAP	104	96	0
TAP	104	192	3
TAP	104	288	2
BRK	105	0	4
BRK	105	0	5
TAP	105	288	3
TAP	105	336	4
TAP	106	0	3
TAP	106	48	4
TAP	106	96	3
TAP	106	144	4
TAP	106	192	2
TAP	106	240	4
TAP	106	288	3
TAP	106	336	5
TAP	107	0	3
TAP	107	48	4
HLD	107	96	2	432
TAP	107	240	5
HLD	108	0	5	144
TAP	108	288	2
TAP	108	336	4
TAP	109	0	2
TAP	109	48	4
TAP	109	192	3
TAP	109	240	5
TAP	109	288	3
TAP	109	336	5
TAP	110	96	1
TAP	110	144	7
TAP	110	192	1
TAP	110	240	7
TAP	111	0	0
TAP	111	48	6
TAP	111	96	0
TAP	111	144	6
BRK	111	288	2
TAP	111	336	3
TAP	112	0	2
TAP	112	48	5
TAP	112	96	4
TAP	112	144	5
BRK	112	192	1
TAP	112	240	3
TAP	112	288	2
TAP	112	336	6
TAP	113	0	4
TAP	113	48	5
TAP	113	96	3
TAP	113	144	4
TAP	113	240	3
TAP	113	240	4
TAP	113	336	1
TAP	113	336	6
BRK	114	0	0
BRK	114	0	7

T_REC_TAP	407
T_REC_BRK	22
T_REC_XTP	0
T_REC_HLD	46
T_REC_XHO	0
T_REC_STR	26
T_REC_BST	0
T_REC_XST	0
T_REC_TTP	0
T_REC_THO	0
T_REC_SLD	26
T_REC_ALL	527
T_NUM_TAP	433
T_NUM_BRK	22
T_NUM_HLD	46
T_NUM_SLD	26
T_NUM_ALL	527
T_JUDGE_TAP	455
T_JUDGE_HLD	152
T_JUDGE_SLD	26
T_JUDGE_ALL	633
TTM_EACHPAIRS	137
TTM_SCR_TAP	216500
TTM_SCR_BRK	57200
TTM_SCR_HLD	46000
TTM_SCR_SLD	39000
TTM_SCR_ALL	358700
TTM_SCR_S	345850
TTM_SCR_SS	356500
TTM_RAT_ACV	10061

