VERSION	0.00.00	1.03.00
FES_MODE	0
BPM_DEF	237.000	237.000	237.000	237.000
MET_DEF	4	4
RESOLUTION	384
CLK_DEF	288
COMPATIBLE_CODE	MA2

BPM	0	0	237.000
MET	0	0	4	3

TAP	8	96	6
TAP	9	0	4
TAP	9	288	1
TAP	10	192	3
TAP	11	96	5
TAP	12	0	7
TAP	12	288	2
TAP	13	192	0
TAP	14	96	3
TAP	14	96	4
TAP	15	0	1
TAP	15	0	6
TAP	15	288	6
TAP	16	0	6
TAP	16	192	4
TAP	16	288	4
TAP	17	96	1
TAP	17	192	1
TAP	18	0	3
TAP	18	96	3
TAP	18	288	5
TAP	19	0	5
TAP	19	192	7
TAP	19	288	7
TAP	20	96	2
TAP	20	192	2
TAP	21	0	0
TAP	21	288	2
TAP	21	288	3
TAP	22	0	2
TAP	22	0	3
TAP	22	192	4
TAP	22	192	5
TAP	22	288	4
TAP	22	288	5
TAP	23	96	6
TAP	23	96	7
TAP	23	192	6
TAP	23	192	7
TAP	24	0	0
TAP	24	0	1
TAP	24	96	0
TAP	24	96	1
TAP	24	288	6
TAP	24	288	7
TAP	25	0	0
TAP	25	0	5
TAP	25	192	0
TAP	25	192	1
TAP	25	288	2
TAP	25	288	7
TAP	26	96	3
TAP	26	96	4
BRK	27	0	0
BRK	27	0	7
TAP	27	288	6
TAP	28	0	6
TAP	28	96	6
TAP	29	96	0
TAP	29	192	0
TAP	29	288	0
TAP	30	288	4
TAP	31	0	4
TAP	31	96	4
TAP	32	96	2
TAP	32	192	2
TAP	32	288	2
TAP	33	288	1
TAP	34	0	1
TAP	34	96	0
TAP	35	96	6
TAP	35	192	6
TAP	35	288	7
TAP	36	288	3
TAP	37	0	3
TAP	37	96	2
TAP	38	96	4
TAP	38	192	4
TAP	38	288	5
TAP	39	288	6
TAP	40	0	6
TAP	40	96	6
TAP	40	288	6
TAP	40	288	7
TAP	41	96	1
TAP	41	192	1
TAP	41	288	1
TAP	42	96	0
TAP	42	96	1
TAP	42	288	5
TAP	43	0	5
TAP	43	96	5
TAP	43	288	4
TAP	43	288	5
TAP	44	96	2
TAP	44	192	2
TAP	44	288	2
TAP	45	96	2
TAP	45	96	3
TAP	45	288	1
TAP	46	0	1
TAP	46	96	0
TAP	46	288	0
TAP	46	288	1
TAP	47	96	6
TAP	47	192	6
TAP	47	288	7
TAP	48	96	6
TAP	48	96	7
TAP	48	288	2
TAP	49	0	2
TAP	49	96	3
TAP	49	288	2
TAP	49	288	3
TAP	50	96	5
TAP	50	192	5
TAP	50	288	4
TAP	51	96	4
TAP	51	96	5
TAP	51	288	7
TAP	52	0	7
TAP	52	96	7
TAP	52	192	6
TAP	52	288	6
TAP	53	0	6
HLD	53	96	5	288
TAP	54	0	4
TAP	54	288	0
TAP	55	0	0
TAP	55	96	0
TAP	55	192	1
TAP	55	288	1
TAP	56	0	1
HLD	56	96	2	288
TAP	57	0	3
TAP	57	288	6
TAP	58	0	6
TAP	58	96	7
TAP	58	192	6
TAP	58	288	6
TAP	59	0	5
HLD	59	96	4	288
TAP	60	0	3
TAP	60	288	1
TAP	61	0	1
TAP	61	96	0
TAP	61	192	1
TAP	61	288	1
TAP	62	0	2
HLD	62	96	3	288
TAP	63	0	4
TAP	63	288	6
TAP	64	0	6
TAP	64	96	6
TAP	64	192	7
TAP	64	288	7
TAP	65	0	7
STR	65	96	0
SSL	65	96	0	96	384	4
TAP	66	288	1
TAP	67	0	1
TAP	67	96	1
TAP	67	192	0
TAP	67	288	0
TAP	68	0	0
STR	68	96	7
SSR	68	96	7	96	384	3
TAP	69	288	6
TAP	70	192	6
TAP	71	96	5
TAP	72	0	3
TAP	72	0	4
TAP	72	96	3
TAP	72	96	4
TAP	72	192	3
TAP	72	192	4
TAP	72	288	1
TAP	73	192	1
TAP	74	96	2
TAP	75	0	0
TAP	75	0	7
TAP	75	96	0
TAP	75	96	7
TAP	75	192	0
TAP	75	192	7
TAP	75	288	1
TAP	75	288	6
TAP	76	192	2
TAP	76	192	5
TAP	77	96	3
TAP	77	96	4
TAP	78	0	2
TAP	78	0	5
TAP	78	96	2
TAP	78	96	5
TAP	78	192	2
TAP	78	192	5
TAP	78	288	3
TAP	78	288	4
TAP	79	192	2
TAP	79	192	5
TAP	80	96	1
TAP	80	96	6
TAP	81	0	0
TAP	81	0	7
TAP	81	96	0
TAP	81	96	7
HLD	81	192	0	1057
HLD	81	192	7	1057
TAP	84	288	6
TAP	85	0	6
TAP	85	96	6
TAP	85	192	5
TAP	85	288	5
TAP	86	0	5
TAP	86	96	4
TAP	86	192	4
TAP	86	288	4
TAP	87	0	2
TAP	87	288	1
TAP	88	0	1
TAP	88	96	1
TAP	88	192	2
TAP	88	288	2
TAP	89	0	2
TAP	89	96	3
TAP	89	192	3
TAP	89	288	3
TAP	90	0	5
TAP	90	288	2
TAP	91	0	2
TAP	91	96	2
TAP	91	192	0
TAP	91	288	0
TAP	92	0	0
TAP	92	96	6
TAP	92	192	6
TAP	92	288	6
TAP	93	0	4
TAP	93	288	5
TAP	94	0	5
TAP	94	96	5
TAP	94	192	7
TAP	94	288	7
TAP	95	0	7
TAP	95	96	1
TAP	95	192	1
TAP	95	288	1
TAP	96	0	3
TAP	96	288	7
TAP	97	0	6
TAP	97	96	5
TAP	97	192	0
TAP	97	288	1
TAP	98	0	2
TAP	98	96	3
TAP	98	96	4
TAP	98	192	3
TAP	98	192	4
TAP	98	288	3
TAP	98	288	4
TAP	99	0	2
TAP	99	0	5
TAP	99	288	1
TAP	99	288	6
TAP	100	0	1
TAP	100	0	6
TAP	100	96	1
TAP	100	96	6
STR	100	192	0
SCR	100	192	0	96	576	3
STR	100	192	7
SCL	100	192	7	96	576	4
TAP	102	288	7
TAP	103	0	7
TAP	103	96	6
TAP	103	192	0
TAP	103	288	0
TAP	104	0	1
TAP	104	96	5
TAP	104	192	5
TAP	104	288	4
TAP	105	0	2
TAP	105	96	2
TAP	105	192	3
TAP	105	288	4
TAP	106	0	5
TAP	106	96	5
TAP	106	192	3
TAP	106	288	2
TAP	107	0	2
TAP	107	96	6
TAP	107	192	1
TAP	107	288	7
BRK	108	0	0
TAP	108	288	4
TAP	109	0	5
TAP	109	96	6
TAP	109	192	3
TAP	109	288	2
TAP	110	0	1
TAP	110	96	7
TAP	110	192	7
TAP	110	288	7
TAP	111	0	0
TAP	111	96	0
TAP	111	192	0
TAP	111	288	7
TAP	112	0	5
TAP	112	96	6
TAP	112	192	0
TAP	112	288	2
TAP	113	0	1
TAP	113	96	0
TAP	113	96	7
TAP	113	192	0
TAP	113	192	7
TAP	113	288	0
TAP	113	288	7
BRK	114	0	1
BRK	114	0	6

T_REC_TAP	302
T_REC_BRK	5
T_REC_XTP	0
T_REC_HLD	6
T_REC_XHO	0
T_REC_STR	4
T_REC_BST	0
T_REC_XST	0
T_REC_TTP	0
T_REC_THO	0
T_REC_SLD	4
T_REC_ALL	321
T_NUM_TAP	306
T_NUM_BRK	5
T_NUM_HLD	6
T_NUM_SLD	4
T_NUM_ALL	321
T_JUDGE_TAP	311
T_JUDGE_HLD	70
T_JUDGE_SLD	4
T_JUDGE_ALL	385
TTM_EACHPAIRS	54
TTM_SCR_TAP	153000
TTM_SCR_BRK	13000
TTM_SCR_HLD	6000
TTM_SCR_SLD	6000
TTM_SCR_ALL	178000
TTM_SCR_S	172200
TTM_SCR_SS	177500
TTM_RAT_ACV	10028

