VERSION	0.00.00	1.03.00
FES_MODE	0
BPM_DEF	237.000	237.000	237.000	237.000
MET_DEF	4	4
RESOLUTION	384
CLK_DEF	288
COMPATIBLE_CODE	MA2

BPM	0	0	237.000
MET	0	0	4	3

TAP	8	96	3
TAP	9	288	4
TAP	11	96	2
TAP	11	96	3
TAP	12	288	4
TAP	12	288	5
TAP	14	96	1
TAP	14	96	6
TAP	15	288	0
TAP	16	192	0
TAP	17	96	7
TAP	18	0	7
TAP	18	288	0
TAP	19	192	0
TAP	20	96	1
TAP	20	96	6
TAP	21	0	1
TAP	21	0	6
TAP	21	288	2
TAP	22	192	2
TAP	23	96	5
TAP	24	0	5
TAP	24	288	2
TAP	25	192	2
TAP	26	96	3
TAP	26	96	4
TAP	27	0	3
TAP	27	0	4
STR	27	288	2
SI_	27	288	2	96	480	5
STR	30	288	6
SI_	30	288	6	96	480	3
STR	33	288	0
SI_	33	288	0	96	480	4
TAP	36	288	7
TAP	37	192	0
TAP	38	96	0
TAP	38	96	7
BRK	39	0	0
BRK	39	0	7
TAP	39	288	0
TAP	39	288	1
TAP	40	288	1
TAP	41	0	1
TAP	41	96	1
TAP	42	0	0
TAP	42	0	7
TAP	42	288	6
TAP	42	288	7
TAP	43	288	6
TAP	44	0	6
TAP	44	96	6
TAP	45	0	0
TAP	45	0	7
TAP	45	288	0
TAP	45	288	1
TAP	46	288	1
TAP	47	0	1
TAP	47	96	1
TAP	48	0	0
TAP	48	0	7
TAP	48	288	0
TAP	48	288	7
TAP	49	192	0
TAP	49	192	7
TAP	50	96	1
TAP	50	96	6
TAP	51	288	1
TAP	52	192	1
TAP	53	96	3
TAP	54	0	3
TAP	54	288	5
TAP	55	192	5
HLD	56	96	0	288
HLD	56	96	7	288
TAP	57	288	1
TAP	57	288	6
TAP	58	192	0
TAP	58	288	0
TAP	59	0	7
TAP	59	96	7
TAP	60	0	1
TAP	60	0	6
TAP	60	288	1
TAP	60	288	6
TAP	61	192	7
TAP	61	288	7
TAP	62	0	0
TAP	62	96	0
TAP	63	0	1
TAP	63	0	6
STR	63	288	1
SI_	63	288	1	96	480	4
STR	66	288	6
SI_	66	288	6	96	480	3
TAP	69	288	2
TAP	69	288	3
TAP	70	192	2
TAP	70	192	3
TAP	71	96	2
TAP	71	96	3
TAP	72	0	3
TAP	72	0	4
TAP	72	288	4
TAP	72	288	5
TAP	73	192	4
TAP	73	192	5
TAP	74	96	4
TAP	74	96	5
TAP	75	0	3
TAP	75	0	4
TAP	75	288	2
TAP	75	288	4
TAP	76	192	2
TAP	76	192	4
TAP	77	96	2
TAP	77	96	4
TAP	78	0	3
TAP	78	0	4
TAP	78	288	3
TAP	78	288	5
TAP	79	192	3
TAP	79	192	5
TAP	80	96	3
TAP	80	96	5
TAP	81	0	3
TAP	81	0	4
TAP	84	288	3
TAP	85	192	2
TAP	86	96	1
TAP	87	0	0
TAP	87	288	7
TAP	88	192	6
TAP	89	96	5
TAP	90	0	4
TAP	90	288	2
TAP	90	288	5
TAP	91	192	3
TAP	91	288	3
TAP	92	0	4
TAP	92	96	4
TAP	93	0	3
TAP	93	0	4
TAP	93	288	2
TAP	93	288	5
TAP	94	192	4
TAP	94	288	4
TAP	95	0	3
TAP	95	96	3
TAP	96	0	3
TAP	96	0	4
TAP	96	288	2
TAP	96	288	3
TAP	97	192	2
TAP	97	192	4
TAP	98	96	4
TAP	98	96	5
TAP	99	0	3
TAP	99	0	5
TAP	99	288	2
TAP	99	288	3
TAP	100	192	2
TAP	100	192	4
HLD	101	96	2	288
HLD	101	96	5	288
TAP	102	288	2
TAP	102	288	4
TAP	103	192	2
TAP	103	288	2
TAP	104	0	4
TAP	104	96	4
TAP	105	0	2
TAP	105	0	5
TAP	105	288	3
TAP	105	288	5
TAP	106	192	5
TAP	106	288	5
TAP	107	0	3
TAP	107	96	3
TAP	108	0	2
TAP	108	0	5
TAP	108	288	3
TAP	108	288	4
TAP	109	192	3
TAP	109	192	4
TAP	110	96	2
TAP	110	96	5
TAP	111	0	2
TAP	111	0	5
TAP	111	288	1
TAP	111	288	6
TAP	112	192	1
TAP	112	192	6
TAP	113	96	0
TAP	113	96	7
BRK	114	0	0
BRK	114	0	7

T_REC_TAP	179
T_REC_BRK	4
T_REC_XTP	0
T_REC_HLD	4
T_REC_XHO	0
T_REC_STR	5
T_REC_BST	0
T_REC_XST	0
T_REC_TTP	0
T_REC_THO	0
T_REC_SLD	5
T_REC_ALL	197
T_NUM_TAP	184
T_NUM_BRK	4
T_NUM_HLD	4
T_NUM_SLD	5
T_NUM_ALL	197
T_JUDGE_TAP	188
T_JUDGE_HLD	24
T_JUDGE_SLD	5
T_JUDGE_ALL	217
TTM_EACHPAIRS	62
TTM_SCR_TAP	92000
TTM_SCR_BRK	10400
TTM_SCR_HLD	4000
TTM_SCR_SLD	7500
TTM_SCR_ALL	113900
TTM_SCR_S	110100
TTM_SCR_SS	113500
TTM_RAT_ACV	10035

