VERSION	0.00.00	1.03.00
FES_MODE	0
BPM_DEF	198.000	198.000	198.000	198.000
MET_DEF	4	4
RESOLUTION	384
CLK_DEF	384
COMPATIBLE_CODE	MA2

BPM	0	0	198.000
MET	0	0	4	4

STR	2	0	3
SCL	2	0	3	96	480	4
TAP	2	96	3
STR	4	0	7
SUR	4	0	7	96	192	5
TAP	4	96	7
STR	5	0	1
SUL	5	0	1	96	192	3
TAP	5	96	1
STR	6	0	4
SCR	6	0	4	96	480	3
TAP	6	96	4
STR	8	0	0
SUL	8	0	0	96	192	2
TAP	8	96	0
STR	9	0	6
SUR	9	0	6	96	192	4
TAP	9	96	6
TAP	10	0	3
TAP	10	96	2
TAP	10	192	1
TAP	10	240	7
TAP	10	288	0
TAP	10	288	6
TAP	11	0	4
TAP	11	96	5
TAP	11	192	6
TAP	11	240	0
TAP	11	288	1
TAP	11	288	7
TAP	12	0	0
TAP	12	96	1
TAP	12	192	2
TAP	12	240	4
TAP	12	288	3
TAP	12	288	5
TAP	13	0	7
TAP	13	96	6
TAP	13	192	5
TAP	13	240	3
TAP	13	288	2
TAP	13	288	4
TAP	14	0	1
TAP	14	0	5
TAP	14	96	3
TAP	14	96	7
TAP	14	192	0
TAP	14	192	4
TAP	14	288	2
TAP	14	288	6
TAP	15	0	1
TAP	15	0	4
TAP	15	96	3
TAP	15	96	5
TAP	15	192	5
TAP	15	192	7
TAP	15	288	1
TAP	15	288	7
TAP	16	0	1
TAP	16	0	4
TAP	16	96	1
TAP	16	192	2
TAP	16	192	6
TAP	16	288	6
TAP	16	336	5
TAP	17	48	5
TAP	17	144	5
TAP	17	192	1
TAP	17	192	4
TAP	17	288	1
TAP	17	336	2
TAP	18	48	2
TAP	18	144	2
TAP	18	192	3
TAP	18	192	7
TAP	18	288	7
TAP	18	336	6
TAP	19	48	6
TAP	19	144	6
TAP	19	192	0
TAP	19	192	5
TAP	19	288	2
TAP	19	288	3
TAP	20	0	3
TAP	20	0	6
TAP	20	96	6
TAP	20	192	1
TAP	20	192	5
TAP	20	288	1
TAP	20	336	2
TAP	21	48	2
TAP	21	144	2
TAP	21	192	3
TAP	21	192	7
TAP	21	288	7
TAP	21	336	6
TAP	22	48	6
TAP	22	144	6
TAP	22	192	0
TAP	22	192	5
TAP	22	288	0
TAP	22	288	7
STR	22	336	0
SCR	22	336	0	96	48	3
STR	22	336	7
SCL	22	336	7	96	48	4
TAP	23	48	0
TAP	23	48	7
BRK	23	180	1
BRK	23	180	6
TAP	24	0	3
TAP	24	96	3
TAP	24	192	0
TAP	24	192	6
TAP	24	288	1
TAP	24	288	5
TAP	25	0	4
TAP	25	96	4
TAP	25	192	1
TAP	25	192	7
TAP	25	288	2
TAP	25	288	6
TAP	26	0	3
TAP	26	96	3
HLD	26	192	0	192
TAP	26	192	6
TAP	26	288	7
HLD	27	0	2	96
HLD	27	96	4	96
HLD	27	192	6	96
TAP	27	288	0
TAP	28	0	4
TAP	28	96	5
TAP	28	192	1
TAP	28	192	7
TAP	28	288	0
TAP	28	288	6
TAP	29	0	3
TAP	29	96	2
TAP	29	192	0
TAP	29	192	6
TAP	29	288	1
TAP	29	288	7
TAP	30	0	4
TAP	30	96	5
TAP	30	192	1
HLD	30	192	7	192
TAP	30	288	0
HLD	31	0	5	96
HLD	31	96	3	96
HLD	31	192	1	96
BRK	31	288	7
TAP	32	0	0
TAP	32	96	7
TAP	32	192	2
TAP	32	240	3
TAP	32	288	1
TAP	33	0	7
TAP	33	96	0
TAP	33	192	5
TAP	33	240	4
TAP	33	288	6
TAP	34	0	2
TAP	34	96	4
TAP	34	192	7
TAP	34	240	6
TAP	34	288	0
TAP	35	0	5
TAP	35	96	3
TAP	35	192	0
TAP	35	240	1
TAP	35	288	7
TAP	36	0	3
TAP	36	96	6
TAP	36	96	7
TAP	36	192	4
TAP	36	288	0
TAP	36	288	1
TAP	37	0	1
TAP	37	96	4
TAP	37	96	5
TAP	37	192	6
TAP	37	288	2
TAP	37	288	3
HLD	38	0	1	96
HLD	38	96	3	96
HLD	38	192	4	96
HLD	38	288	6	96
STR	39	0	7
SCR	39	0	7	96	96	3
TAP	40	0	7
TAP	40	96	0
TAP	40	96	6
TAP	40	192	5
TAP	40	240	4
TAP	40	288	6
TAP	41	0	0
TAP	41	96	1
TAP	41	96	7
TAP	41	192	2
TAP	41	240	3
TAP	41	288	1
TAP	42	0	5
TAP	42	96	4
TAP	42	96	6
TAP	42	192	0
TAP	42	240	7
TAP	42	288	1
TAP	43	0	2
TAP	43	96	1
TAP	43	96	3
TAP	43	192	7
TAP	43	240	0
TAP	43	288	6
TAP	44	0	2
TAP	44	96	1
TAP	44	96	3
TAP	44	192	6
TAP	44	288	5
TAP	44	288	7
TAP	45	0	1
TAP	45	96	0
TAP	45	96	2
TAP	45	192	5
TAP	45	288	4
TAP	45	288	6
HLD	46	0	6	96
HLD	46	96	4	96
HLD	46	192	3	96
STR	46	288	1
SUR	46	288	1	96	192	4
TAP	48	0	2
TAP	48	48	3
TAP	48	96	1
TAP	48	192	5
TAP	48	240	4
TAP	48	288	6
TAP	49	0	1
TAP	49	48	0
TAP	49	96	2
TAP	49	192	6
TAP	49	240	7
TAP	49	288	5
TAP	50	0	1
TAP	50	48	3
TAP	50	96	2
TAP	50	192	6
TAP	50	240	4
TAP	50	288	5
TAP	51	0	2
TAP	51	48	0
TAP	51	96	1
TAP	51	192	5
TAP	51	240	7
TAP	51	288	6
TAP	52	0	2
TAP	52	0	3
HLD	52	96	1	96
HLD	52	96	4	96
TAP	52	288	1
TAP	52	288	4
TAP	53	0	4
TAP	53	0	5
HLD	53	96	3	96
HLD	53	96	6	96
TAP	53	288	3
TAP	53	288	6
TAP	54	0	0
TAP	54	0	7
TAP	54	96	1
TAP	54	96	2
TAP	54	192	3
TAP	54	192	4
TAP	54	288	5
TAP	54	288	6
STR	55	0	3
SV_	55	0	3	96	96	1
STR	55	0	7
SV_	55	0	7	96	96	5
TAP	56	0	2
TAP	56	48	3
TAP	56	96	1
TAP	56	96	4
TAP	56	192	5
TAP	56	240	4
TAP	56	288	3
TAP	56	288	6
TAP	57	0	1
TAP	57	48	0
TAP	57	96	2
TAP	57	96	7
TAP	57	192	6
TAP	57	240	7
TAP	57	288	0
TAP	57	288	5
TAP	58	0	2
TAP	58	48	4
TAP	58	96	0
TAP	58	96	5
TAP	58	192	5
TAP	58	240	3
TAP	58	288	2
TAP	58	288	7
TAP	59	0	1
TAP	59	48	7
TAP	59	96	3
TAP	59	96	6
TAP	59	192	6
TAP	59	240	0
TAP	59	288	1
TAP	59	288	4
TAP	60	0	6
TAP	60	0	7
HLD	60	96	0	96
HLD	60	96	5	96
TAP	60	288	2
TAP	60	288	3
TAP	61	0	0
TAP	61	0	1
HLD	61	96	2	96
HLD	61	96	7	96
TAP	61	288	4
TAP	61	288	5
TAP	62	0	0
TAP	62	0	4
TAP	62	96	2
TAP	62	96	6
TAP	62	192	1
TAP	62	192	5
TAP	62	288	3
TAP	62	288	7
STR	63	0	0
SCR	63	0	0	96	96	3
STR	63	0	4
SCR	63	0	4	96	96	7
HLD	64	0	1	192
TAP	64	192	3
TAP	64	288	0
TAP	64	336	7
TAP	65	48	5
TAP	65	144	3
TAP	65	192	2
TAP	65	192	4
TAP	65	288	0
HLD	66	0	6	192
TAP	66	192	4
TAP	66	288	7
TAP	66	336	0
TAP	67	48	2
TAP	67	144	4
TAP	67	192	3
TAP	67	192	5
TAP	67	288	7
HLD	68	0	2	192
TAP	68	192	0
TAP	68	288	3
TAP	68	336	4
TAP	69	48	6
TAP	69	144	0
TAP	69	192	1
TAP	69	192	7
TAP	69	288	4
TAP	70	0	2
TAP	70	96	1
TAP	70	96	3
TAP	70	192	5
TAP	70	240	4
TAP	70	288	3
TAP	70	288	5
TAP	71	0	6
TAP	71	96	6
TAP	71	96	7
TAP	71	192	1
TAP	71	240	0
TAP	71	288	1
TAP	71	288	7
TAP	72	0	0
TAP	72	48	4
TAP	72	96	2
TAP	72	144	6
TAP	72	192	3
TAP	72	240	7
TAP	72	288	1
TAP	72	336	5
TAP	73	0	0
TAP	73	24	1
TAP	73	48	2
TAP	73	72	3
TAP	73	96	4
TAP	73	120	5
TAP	73	144	6
TAP	73	168	7
BRK	73	192	0
STR	73	288	0
SI_	73	288	0	96	48	4
STR	74	0	7
SI_	74	0	7	96	48	5
TAP	74	96	1
STR	74	288	7
SI_	74	288	7	96	48	3
STR	75	0	0
SI_	75	0	0	96	48	2
TAP	75	96	6
STR	75	288	0
SI_	75	288	0	96	48	4
STR	76	0	7
SI_	76	0	7	96	48	5
STR	76	96	1
SI_	76	96	1	96	48	3
STR	76	192	6
SI_	76	192	6	96	48	4
STR	76	288	0
SI_	76	288	0	96	48	2
STR	77	0	7
SI_	77	0	7	96	48	3
BRK	77	96	0
STR	77	288	0
SI_	77	288	0	96	48	4
STR	78	0	6
SI_	78	0	6	96	48	3
TAP	78	96	1
STR	78	288	7
SI_	78	288	7	96	48	3
STR	79	0	1
SI_	79	0	1	96	48	4
TAP	79	96	6
STR	79	288	1
SI_	79	288	1	96	48	3
STR	80	0	7
SI_	80	0	7	96	48	5
STR	80	96	0
SI_	80	96	0	96	48	4
STR	80	192	7
SI_	80	192	7	96	48	3
STR	80	288	0
SI_	80	288	0	96	48	2
STR	81	0	6
SI_	81	0	6	96	48	4
BRK	81	96	1
TAP	81	288	0
TAP	81	288	5
HLD	82	0	6	96
HLD	82	96	4	96
TAP	82	192	3
TAP	82	240	3
TAP	82	288	2
TAP	82	288	4
HLD	83	0	3	96
HLD	83	96	5	96
TAP	83	192	6
TAP	83	240	6
TAP	83	288	5
TAP	83	288	7
HLD	84	0	4	96
HLD	84	96	2	96
TAP	84	192	1
TAP	84	240	1
TAP	84	288	0
TAP	84	288	2
HLD	85	0	1	96
HLD	85	96	3	96
TAP	85	192	4
TAP	85	240	4
TAP	85	288	3
TAP	85	288	5
HLD	86	0	1	96
HLD	86	96	7	96
HLD	86	192	5	96
HLD	86	288	3	96
HLD	87	0	2	96
HLD	87	96	0	96
HLD	87	192	6	96
HLD	87	288	4	96
STR	88	0	2
SCL	88	0	2	96	96	7
STR	88	96	7
SCL	88	96	7	96	96	4
STR	88	192	4
SCL	88	192	4	96	96	1
STR	88	288	1
SCL	88	288	1	96	192	3
STR	89	288	0
SCL	89	288	0	96	48	5
STR	90	0	0
SCR	90	0	0	96	48	3
TAP	90	96	0
STR	90	288	7
SCR	90	288	7	96	48	2
STR	91	0	7
SCL	91	0	7	96	48	4
TAP	91	96	7
STR	91	288	0
SI_	91	288	0	96	48	2
STR	92	0	0
SI_	92	0	0	96	48	5
STR	92	96	0
SI_	92	96	0	96	48	3
STR	92	192	0
SI_	92	192	0	96	48	6
STR	92	288	0
SI_	92	288	0	96	48	4
STR	93	0	0
SCL	93	0	0	96	48	5
BRK	93	96	0
STR	93	288	7
SCR	93	288	7	96	48	2
STR	94	0	7
SCL	94	0	7	96	48	4
TAP	94	96	7
STR	94	288	0
SCL	94	288	0	96	48	5
STR	95	0	0
SCR	95	0	0	96	48	3
TAP	95	96	0
STR	95	288	7
SI_	95	288	7	96	48	5
STR	96	0	7
SI_	96	0	7	96	48	2
STR	96	96	7
SI_	96	96	7	96	48	4
STR	96	192	7
SI_	96	192	7	96	48	1
STR	96	288	7
SI_	96	288	7	96	48	3
STR	97	0	7
SCR	97	0	7	96	48	2
BRK	97	96	7
TAP	97	288	2
TAP	97	288	7
HLD	98	0	1	96
HLD	98	96	3	96
TAP	98	192	4
TAP	98	240	5
TAP	98	288	3
TAP	98	288	6
HLD	99	0	4	96
HLD	99	96	2	96
TAP	99	192	1
TAP	99	240	0
TAP	99	288	2
TAP	99	288	7
HLD	100	0	3	96
HLD	100	96	5	96
TAP	100	192	6
TAP	100	240	7
TAP	100	288	0
TAP	100	288	5
HLD	101	0	6	96
HLD	101	96	4	96
TAP	101	192	3
TAP	101	240	2
TAP	101	288	1
TAP	101	288	4
TAP	102	0	0
TAP	102	48	4
TAP	102	96	3
TAP	102	144	6
TAP	102	192	1
TAP	102	240	5
TAP	102	288	2
TAP	102	336	7
TAP	103	0	0
TAP	103	96	3
TAP	103	96	5
TAP	103	192	5
TAP	103	192	7
TAP	103	288	1
TAP	103	288	7
HLD	104	0	1	192
BRK	104	0	3
TAP	104	96	3
HLD	104	192	5	384
TAP	104	288	1
TAP	104	336	7
TAP	105	48	7
TAP	105	144	7
HLD	105	192	0	384
TAP	105	288	5
TAP	105	336	2
TAP	106	48	2
TAP	106	144	2
HLD	106	192	7	384
TAP	106	288	0
TAP	106	336	5
TAP	107	48	5
TAP	107	144	5
TAP	107	192	1
TAP	107	288	2
TAP	107	288	3
TAP	108	0	4
HLD	108	0	6	192
TAP	108	96	4
HLD	108	192	3	384
TAP	108	288	6
TAP	108	336	2
TAP	109	48	2
TAP	109	144	2
HLD	109	192	7	384
TAP	109	288	3
TAP	109	336	5
TAP	110	48	5
TAP	110	144	5
TAP	110	192	0
TAP	110	288	0
TAP	110	288	7
STR	110	336	0
SCR	110	336	0	96	48	3
STR	110	336	7
SCL	110	336	7	96	48	4
TAP	111	48	0
TAP	111	48	7
BRK	111	180	1
BRK	111	180	6

T_REC_TAP	425
T_REC_BRK	11
T_REC_XTP	0
T_REC_HLD	57
T_REC_XHO	0
T_REC_STR	60
T_REC_BST	0
T_REC_XST	0
T_REC_TTP	0
T_REC_THO	0
T_REC_SLD	60
T_REC_ALL	613
T_NUM_TAP	485
T_NUM_BRK	11
T_NUM_HLD	57
T_NUM_SLD	60
T_NUM_ALL	613
T_JUDGE_TAP	496
T_JUDGE_HLD	158
T_JUDGE_SLD	60
T_JUDGE_ALL	714
TTM_EACHPAIRS	105
TTM_SCR_TAP	242500
TTM_SCR_BRK	28600
TTM_SCR_HLD	57000
TTM_SCR_SLD	90000
TTM_SCR_ALL	418100
TTM_SCR_S	404500
TTM_SCR_SS	417000
TTM_RAT_ACV	10026

