VERSION	0.00.00	1.03.00
FES_MODE	0
BPM_DEF	198.000	198.000	198.000	198.000
MET_DEF	4	4
RESOLUTION	384
CLK_DEF	384
COMPATIBLE_CODE	MA2

BPM	0	0	198.000
MET	0	0	4	4

HLD	2	0	5	384
HLD	3	0	6	384
HLD	4	0	7	384
TAP	5	0	0
HLD	6	0	2	384
HLD	7	0	1	384
HLD	8	0	0	384
TAP	9	0	7
TAP	10	0	5
TAP	10	96	5
TAP	10	192	4
TAP	10	288	4
TAP	11	0	3
TAP	11	96	3
TAP	11	192	2
TAP	12	0	2
TAP	12	96	2
TAP	12	192	3
TAP	12	288	3
TAP	13	0	4
TAP	13	96	4
TAP	13	192	5
TAP	14	0	0
TAP	14	96	0
TAP	14	192	7
TAP	14	288	7
BRK	15	0	1
BRK	15	0	6
HLD	16	0	5	192
TAP	16	192	4
HLD	17	0	2	192
TAP	17	192	3
HLD	18	0	6	192
TAP	18	192	5
HLD	19	0	1	192
TAP	19	192	2
HLD	20	0	6	192
TAP	20	192	7
HLD	21	0	1	192
TAP	21	192	0
HLD	22	0	7	192
TAP	22	192	0
TAP	22	336	0
TAP	22	336	7
STR	23	48	0
SCR	23	48	0	96	96	3
STR	23	48	7
SCL	23	48	7	96	96	4
TAP	24	0	6
TAP	24	96	3
TAP	24	192	4
TAP	24	192	5
TAP	24	288	5
TAP	25	0	1
TAP	25	96	4
TAP	25	192	2
TAP	25	192	3
TAP	25	288	2
TAP	26	0	6
TAP	26	96	3
TAP	26	192	4
TAP	26	192	5
TAP	26	288	7
TAP	27	0	0
TAP	27	0	6
TAP	27	96	1
TAP	27	192	2
TAP	27	192	3
TAP	27	288	4
TAP	28	0	1
TAP	28	96	4
TAP	28	192	2
TAP	28	192	3
TAP	28	288	2
TAP	29	0	6
TAP	29	96	3
TAP	29	192	4
TAP	29	192	5
TAP	29	288	5
TAP	30	0	1
TAP	30	96	4
TAP	30	192	2
TAP	30	192	3
TAP	30	288	0
TAP	31	0	1
TAP	31	0	7
TAP	31	96	6
TAP	31	192	4
TAP	31	192	5
TAP	31	288	3
TAP	32	0	2
TAP	32	96	3
TAP	32	192	2
TAP	32	288	2
TAP	32	288	3
TAP	33	0	5
TAP	33	96	4
TAP	33	192	5
TAP	33	288	4
TAP	33	288	5
TAP	34	0	2
TAP	34	96	3
TAP	34	192	2
TAP	34	288	2
TAP	34	288	3
TAP	35	0	5
TAP	35	96	4
TAP	35	192	5
TAP	35	288	6
STR	36	0	7
SI_	36	0	7	96	96	3
TAP	36	288	1
STR	37	0	0
SI_	37	0	0	96	96	4
TAP	37	288	6
TAP	38	0	5
TAP	38	96	4
TAP	38	192	3
TAP	38	288	2
TAP	39	0	1
TAP	39	96	7
TAP	39	192	7
TAP	40	0	5
TAP	40	96	4
TAP	40	192	5
TAP	40	288	4
TAP	40	288	5
TAP	41	0	2
TAP	41	96	3
TAP	41	192	2
TAP	41	288	2
TAP	41	288	3
TAP	42	0	5
TAP	42	96	4
TAP	42	192	5
TAP	42	288	4
TAP	42	288	5
TAP	43	0	2
TAP	43	96	3
TAP	43	192	2
TAP	43	288	1
STR	44	0	0
SI_	44	0	0	96	96	4
TAP	44	288	6
STR	45	0	7
SI_	45	0	7	96	96	3
TAP	45	288	1
TAP	46	0	2
TAP	46	96	3
TAP	46	192	4
TAP	46	288	5
TAP	47	0	6
TAP	47	96	0
TAP	47	192	0
TAP	48	0	6
TAP	48	96	3
TAP	48	192	5
TAP	48	288	4
TAP	48	288	5
TAP	49	0	1
TAP	49	96	4
TAP	49	192	2
TAP	49	288	2
TAP	49	288	3
TAP	50	0	6
TAP	50	96	3
TAP	50	192	5
TAP	50	288	4
TAP	50	288	5
TAP	51	0	1
TAP	51	96	4
TAP	51	192	2
TAP	51	288	2
TAP	51	288	3
HLD	52	0	5	192
HLD	52	192	4	192
HLD	53	0	3	192
HLD	53	192	2	192
HLD	54	0	3	192
HLD	54	192	4	192
TAP	55	0	5
TAP	55	96	5
TAP	55	192	5
TAP	56	0	1
TAP	56	96	4
TAP	56	192	2
TAP	56	288	2
TAP	56	288	3
TAP	57	0	6
TAP	57	96	3
TAP	57	192	5
TAP	57	288	4
TAP	57	288	5
TAP	58	0	1
TAP	58	96	4
TAP	58	192	2
TAP	58	288	2
TAP	58	288	3
TAP	59	0	6
TAP	59	96	3
TAP	59	192	5
TAP	59	288	4
TAP	59	288	5
HLD	60	0	3	192
HLD	60	192	2	192
HLD	61	0	1	192
HLD	61	192	0	192
HLD	62	0	7	192
HLD	62	192	6	192
TAP	63	0	5
HLD	64	0	2	192
TAP	64	192	3
TAP	65	0	6
TAP	65	96	7
TAP	65	192	0
TAP	65	192	5
HLD	66	0	5	192
TAP	66	192	4
TAP	67	0	1
TAP	67	96	0
TAP	67	192	2
TAP	67	192	7
HLD	68	0	6	192
TAP	68	192	7
TAP	69	0	2
TAP	69	96	3
TAP	69	192	1
TAP	69	192	4
TAP	70	0	2
TAP	70	96	4
TAP	70	192	3
TAP	70	192	5
TAP	70	288	2
TAP	70	288	4
TAP	71	0	5
TAP	71	96	3
TAP	71	192	2
TAP	71	192	4
TAP	71	288	3
TAP	71	288	5
TAP	72	0	2
TAP	72	96	4
TAP	72	192	3
TAP	72	192	5
TAP	72	288	2
TAP	72	288	4
TAP	73	0	3
TAP	73	96	4
BRK	73	192	1
BRK	73	192	6
TAP	74	0	0
TAP	74	0	5
TAP	74	96	0
TAP	74	96	5
TAP	74	288	2
TAP	74	288	7
TAP	75	0	2
TAP	75	0	7
TAP	75	96	2
TAP	75	96	7
TAP	75	288	3
TAP	75	288	4
TAP	76	0	4
TAP	76	0	5
TAP	76	96	3
TAP	76	96	4
TAP	76	192	2
TAP	76	192	3
TAP	76	288	3
TAP	76	288	4
TAP	77	0	4
TAP	77	0	5
TAP	77	96	3
TAP	77	96	6
TAP	77	288	1
TAP	77	288	4
TAP	78	0	1
TAP	78	0	4
TAP	78	96	1
TAP	78	96	4
TAP	78	288	3
TAP	78	288	6
TAP	79	0	3
TAP	79	0	6
TAP	79	96	3
TAP	79	96	6
TAP	79	288	0
TAP	79	288	7
TAP	80	0	0
TAP	80	0	1
TAP	80	96	0
TAP	80	96	7
TAP	80	192	6
TAP	80	192	7
TAP	80	288	0
TAP	80	288	7
TAP	81	0	0
TAP	81	0	1
BRK	81	96	2
BRK	81	96	7
TAP	81	288	7
TAP	82	0	6
TAP	82	96	5
TAP	82	192	4
TAP	82	288	3
TAP	83	0	2
TAP	83	96	1
TAP	83	96	3
TAP	83	192	2
TAP	83	288	0
TAP	84	0	1
TAP	84	96	2
TAP	84	192	3
TAP	84	288	4
TAP	85	0	5
TAP	85	96	4
TAP	85	96	6
TAP	85	192	5
TAP	85	288	4
TAP	86	0	3
TAP	86	96	2
TAP	86	192	1
STR	86	288	0
SUL	86	288	0	96	288	7
STR	88	0	7
SCL	88	0	7	96	192	0
BRK	89	0	1
BRK	89	0	6
TAP	89	288	0
TAP	89	288	1
STR	90	0	0
SI_	90	0	0	96	96	5
STR	90	0	1
SI_	90	0	1	96	96	4
TAP	90	288	6
TAP	90	288	7
STR	91	0	6
SI_	91	0	6	96	96	3
STR	91	0	7
SI_	91	0	7	96	96	2
TAP	91	288	4
TAP	92	0	5
TAP	92	96	6
TAP	92	192	7
TAP	92	288	0
TAP	93	0	1
TAP	93	96	2
TAP	93	96	3
TAP	93	288	6
TAP	93	288	7
STR	94	0	6
SI_	94	0	6	96	96	3
STR	94	0	7
SI_	94	0	7	96	96	2
TAP	94	288	0
TAP	94	288	1
STR	95	0	0
SI_	95	0	0	96	96	5
STR	95	0	1
SI_	95	0	1	96	96	4
TAP	95	288	4
TAP	96	0	3
TAP	96	96	2
TAP	96	192	1
STR	96	288	0
SCR	96	288	0	96	96	3
STR	96	288	7
SCL	96	288	7	96	96	4
TAP	97	288	0
TAP	98	0	7
TAP	98	96	6
TAP	98	192	5
TAP	98	288	4
TAP	98	288	6
TAP	99	0	0
TAP	99	96	1
TAP	99	192	2
TAP	99	288	1
TAP	99	288	3
TAP	100	0	4
TAP	100	96	5
TAP	100	192	6
TAP	100	288	5
TAP	100	288	7
TAP	101	0	3
TAP	101	96	2
TAP	101	192	1
TAP	101	288	0
TAP	101	288	7
TAP	102	0	1
TAP	102	0	6
TAP	102	96	2
TAP	102	96	5
TAP	102	192	3
TAP	102	192	4
TAP	102	288	3
TAP	102	288	4
TAP	103	0	2
TAP	103	0	5
TAP	103	96	1
TAP	103	96	6
TAP	103	192	0
TAP	103	192	7
STR	103	288	0
SCR	103	288	0	96	384	3
STR	103	288	7
SCL	103	288	7	96	384	4
TAP	105	192	4
TAP	105	192	5
TAP	106	192	2
TAP	106	192	3
TAP	107	192	4
TAP	107	192	6
TAP	108	192	1
TAP	108	192	3
TAP	109	192	6
TAP	109	192	7
TAP	110	192	0
TAP	110	192	1
TAP	110	336	0
TAP	110	336	7
STR	111	48	0
SCR	111	48	0	96	96	3
STR	111	48	7
SCL	111	48	7	96	96	4

T_REC_TAP	345
T_REC_BRK	8
T_REC_XTP	0
T_REC_HLD	28
T_REC_XHO	0
T_REC_STR	22
T_REC_BST	0
T_REC_XST	0
T_REC_TTP	0
T_REC_THO	0
T_REC_SLD	22
T_REC_ALL	425
T_NUM_TAP	367
T_NUM_BRK	8
T_NUM_HLD	28
T_NUM_SLD	22
T_NUM_ALL	425
T_JUDGE_TAP	375
T_JUDGE_HLD	136
T_JUDGE_SLD	22
T_JUDGE_ALL	533
TTM_EACHPAIRS	95
TTM_SCR_TAP	183500
TTM_SCR_BRK	20800
TTM_SCR_HLD	28000
TTM_SCR_SLD	33000
TTM_SCR_ALL	265300
TTM_SCR_S	256600
TTM_SCR_SS	264500
TTM_RAT_ACV	10030

