VERSION	0.00.00	1.03.00
FES_MODE	0
BPM_DEF	198.000	198.000	198.000	198.000
MET_DEF	4	4
RESOLUTION	384
CLK_DEF	384
COMPATIBLE_CODE	MA2

BPM	0	0	198.000
MET	0	0	4	4

HLD	2	0	0	576
HLD	4	0	1	384
HLD	5	0	2	384
HLD	6	0	3	576
HLD	8	0	7	192
HLD	9	0	6	192
TAP	10	0	5
TAP	10	192	4
TAP	11	0	3
TAP	11	192	2
TAP	12	0	6
TAP	12	192	7
TAP	13	0	0
TAP	13	192	1
STR	14	0	2
SCL	14	0	2	96	192	7
STR	15	0	6
SCL	15	0	6	96	192	3
HLD	16	0	1	384
HLD	18	0	2	384
HLD	20	0	6	384
HLD	22	0	5	384
TAP	24	0	2
TAP	24	96	2
TAP	24	192	2
TAP	24	288	2
TAP	25	0	5
TAP	25	96	5
TAP	25	192	5
TAP	25	288	5
TAP	26	0	3
TAP	26	96	3
TAP	26	192	3
TAP	26	288	3
TAP	27	0	4
TAP	27	96	4
TAP	27	192	4
TAP	27	288	4
TAP	28	0	2
TAP	28	96	2
TAP	28	192	3
TAP	28	288	3
TAP	29	0	5
TAP	29	96	5
TAP	29	192	4
TAP	29	288	4
TAP	30	0	1
TAP	30	96	0
TAP	30	192	7
TAP	30	288	6
TAP	31	0	6
TAP	31	96	7
TAP	31	192	0
BRK	31	288	1
TAP	32	0	1
TAP	32	96	0
TAP	32	96	1
TAP	32	288	6
TAP	32	288	7
TAP	33	96	6
TAP	33	96	7
TAP	33	288	0
TAP	33	288	1
TAP	34	96	2
TAP	34	96	3
TAP	34	288	4
TAP	34	288	5
TAP	35	96	4
TAP	35	96	5
TAP	35	288	2
TAP	35	288	3
TAP	36	96	2
TAP	36	96	3
TAP	36	288	0
TAP	36	288	1
TAP	37	96	6
TAP	37	96	7
TAP	37	288	4
TAP	37	288	5
TAP	38	0	3
TAP	38	96	3
TAP	38	192	4
TAP	38	288	4
BRK	39	0	2
BRK	39	0	5
HLD	40	0	1	192
TAP	40	192	2
HLD	41	0	6	192
TAP	41	192	5
HLD	42	0	1	192
TAP	42	192	3
HLD	43	0	6	192
TAP	43	192	4
HLD	44	0	0	192
HLD	44	192	7	192
HLD	45	0	1	192
HLD	45	192	6	192
TAP	46	0	0
TAP	46	96	0
TAP	46	192	0
STR	46	288	0
SSL	46	288	0	96	288	4
TAP	48	0	5
TAP	48	96	4
TAP	48	96	5
TAP	48	288	2
TAP	48	288	3
TAP	49	96	4
TAP	49	96	5
TAP	49	192	3
TAP	49	192	4
TAP	49	288	2
TAP	49	288	3
TAP	50	96	6
TAP	50	96	7
TAP	50	288	0
TAP	50	288	1
TAP	51	96	6
TAP	51	96	7
TAP	51	192	0
TAP	51	192	7
TAP	51	288	0
TAP	51	288	1
TAP	52	96	3
TAP	52	96	7
TAP	52	288	2
TAP	52	288	6
TAP	53	96	0
TAP	53	96	4
TAP	53	192	1
TAP	53	192	5
TAP	53	288	2
TAP	53	288	6
TAP	54	0	7
TAP	54	96	7
TAP	54	192	3
TAP	54	288	3
TAP	55	0	3
TAP	55	0	7
TAP	55	288	0
TAP	56	0	0
TAP	56	96	1
TAP	56	192	2
TAP	56	288	3
TAP	57	0	3
TAP	57	288	7
TAP	58	0	7
TAP	58	96	6
TAP	58	192	5
TAP	58	288	4
TAP	59	0	4
TAP	59	288	3
TAP	60	0	4
TAP	60	96	3
TAP	60	288	7
TAP	61	0	0
TAP	61	96	7
TAP	61	288	0
TAP	62	0	0
TAP	62	96	7
TAP	62	192	7
TAP	62	288	1
TAP	62	288	6
BRK	63	0	0
BRK	63	0	7
STR	64	0	0
SI_	64	0	0	96	192	3
STR	65	0	7
SI_	65	0	7	96	192	4
STR	66	0	1
SI_	66	0	1	96	144	3
STR	67	0	0
SI_	67	0	0	96	192	4
STR	68	0	6
SI_	68	0	6	96	144	4
STR	69	0	7
SI_	69	0	7	96	192	3
HLD	70	0	3	384
HLD	70	0	4	384
TAP	71	192	2
TAP	71	192	5
TAP	71	288	1
TAP	71	288	6
STR	72	0	0
SCR	72	0	0	96	288	3
STR	72	0	7
SCL	72	0	7	96	288	4
BRK	73	288	2
BRK	73	288	3
TAP	74	0	2
TAP	74	96	3
TAP	74	288	4
TAP	74	288	5
TAP	75	0	5
TAP	75	96	4
TAP	75	288	2
TAP	76	0	3
TAP	76	96	4
TAP	76	192	5
TAP	76	192	6
TAP	76	288	4
TAP	76	288	5
TAP	77	0	3
TAP	77	0	4
TAP	77	96	2
TAP	77	96	3
TAP	77	288	6
TAP	77	288	7
TAP	78	0	6
TAP	78	96	7
TAP	78	288	0
TAP	78	288	1
TAP	79	0	1
TAP	79	96	0
TAP	79	288	5
TAP	80	0	6
TAP	80	96	7
TAP	80	192	0
TAP	80	192	1
TAP	80	288	0
TAP	80	288	7
TAP	81	0	6
TAP	81	0	7
TAP	81	96	0
TAP	81	96	7
STR	82	0	0
SCR	82	0	0	96	192	3
STR	83	0	7
SCL	83	0	7	96	192	4
STR	84	0	1
SCL	84	0	1	96	192	6
STR	85	0	5
SCL	85	0	5	96	192	2
TAP	86	0	0
TAP	86	96	0
TAP	86	192	0
TAP	86	288	0
TAP	87	0	1
TAP	87	0	7
TAP	87	96	2
TAP	87	96	6
TAP	87	192	3
TAP	87	192	5
TAP	87	288	4
TAP	88	0	4
TAP	88	96	3
TAP	88	192	5
TAP	88	288	2
BRK	89	0	6
TAP	89	288	1
TAP	90	0	2
HLD	90	96	3	96
TAP	90	288	6
TAP	91	0	5
HLD	91	96	4	96
TAP	91	288	0
TAP	92	0	7
TAP	92	96	0
TAP	92	192	0
TAP	92	192	7
TAP	92	288	1
TAP	92	288	6
TAP	93	0	2
TAP	93	0	5
TAP	93	96	3
TAP	93	96	4
TAP	93	288	0
TAP	94	0	1
HLD	94	96	2	96
TAP	94	192	3
TAP	94	288	7
TAP	95	0	6
HLD	95	96	5	96
TAP	95	192	4
TAP	95	288	3
TAP	96	0	4
TAP	96	96	3
TAP	96	192	3
TAP	96	192	4
TAP	96	288	2
TAP	96	288	5
TAP	97	0	1
TAP	97	0	6
BRK	97	96	0
BRK	97	96	7
TAP	97	288	0
TAP	98	0	4
TAP	98	96	0
TAP	98	192	4
TAP	98	288	1
TAP	98	288	5
TAP	99	0	2
TAP	99	0	6
TAP	99	96	3
TAP	99	96	7
TAP	99	288	7
TAP	100	0	3
TAP	100	96	7
TAP	100	192	3
TAP	100	288	2
TAP	100	288	6
TAP	101	0	1
TAP	101	0	5
TAP	101	96	0
TAP	101	96	4
TAP	101	288	6
TAP	101	288	7
TAP	102	0	6
TAP	102	0	7
TAP	102	96	0
TAP	102	96	5
TAP	102	192	1
TAP	102	192	4
TAP	102	288	2
TAP	102	288	3
TAP	103	0	2
TAP	103	0	3
TAP	103	96	4
TAP	103	96	5
TAP	103	192	6
TAP	103	192	7
TAP	103	288	0
TAP	103	288	1
STR	104	0	2
SI_	104	0	2	96	192	7
STR	104	0	3
SI_	104	0	3	96	192	6
HLD	106	0	0	576
HLD	108	0	7	576
TAP	110	0	1
TAP	110	192	6
TAP	110	336	0
TAP	110	336	7
TAP	111	48	0
TAP	111	48	7
BRK	111	144	0
BRK	111	144	7

T_REC_TAP	265
T_REC_BRK	12
T_REC_XTP	0
T_REC_HLD	26
T_REC_XHO	0
T_REC_STR	17
T_REC_BST	0
T_REC_XST	0
T_REC_TTP	0
T_REC_THO	0
T_REC_SLD	17
T_REC_ALL	337
T_NUM_TAP	282
T_NUM_BRK	12
T_NUM_HLD	26
T_NUM_SLD	17
T_NUM_ALL	337
T_JUDGE_TAP	294
T_JUDGE_HLD	160
T_JUDGE_SLD	17
T_JUDGE_ALL	471
TTM_EACHPAIRS	77
TTM_SCR_TAP	141000
TTM_SCR_BRK	31200
TTM_SCR_HLD	26000
TTM_SCR_SLD	25500
TTM_SCR_ALL	223700
TTM_SCR_S	215850
TTM_SCR_SS	222500
TTM_RAT_ACV	10053

