VERSION	0.00.00	1.03.00
FES_MODE	0
BPM_DEF	198.000	198.000	198.000	198.000
MET_DEF	4	4
RESOLUTION	384
CLK_DEF	384
COMPATIBLE_CODE	MA2

BPM	0	0	198.000
MET	0	0	4	4

TAP	10	0	0
TAP	10	192	0
TAP	11	0	1
TAP	11	192	1
TAP	12	0	2
TAP	12	192	2
TAP	13	0	3
TAP	13	0	4
TAP	14	0	4
TAP	14	192	4
TAP	15	0	5
TAP	15	192	5
TAP	16	0	3
TAP	16	0	4
TAP	16	192	2
TAP	17	192	2
TAP	18	192	2
TAP	19	192	2
TAP	20	0	3
TAP	20	0	4
TAP	20	192	5
TAP	21	192	5
STR	22	192	7
SI_	22	192	7	96	288	3
TAP	24	0	2
TAP	24	192	2
TAP	25	0	1
TAP	25	192	1
TAP	26	0	2
TAP	26	192	2
TAP	27	0	3
TAP	27	96	3
TAP	27	192	3
TAP	28	0	4
TAP	28	192	4
TAP	29	0	5
TAP	29	192	5
TAP	30	0	6
TAP	30	192	6
TAP	31	0	7
TAP	31	96	7
TAP	31	192	7
TAP	32	0	0
TAP	32	96	0
TAP	32	192	0
TAP	33	0	1
TAP	33	96	1
TAP	33	192	1
TAP	34	0	7
TAP	34	96	7
TAP	34	192	7
TAP	35	0	6
TAP	35	96	6
TAP	35	192	6
TAP	36	0	5
TAP	36	96	5
TAP	36	192	5
TAP	37	0	2
TAP	37	96	2
TAP	37	192	2
TAP	38	0	4
TAP	38	96	4
TAP	38	192	3
TAP	39	0	2
TAP	39	0	6
TAP	40	0	7
TAP	40	96	7
TAP	40	192	7
TAP	41	0	6
TAP	41	96	6
TAP	41	192	6
TAP	42	0	0
TAP	42	96	0
TAP	42	192	0
TAP	43	0	1
TAP	43	96	1
TAP	43	192	1
TAP	44	0	2
TAP	44	96	2
TAP	44	192	2
TAP	45	0	5
TAP	45	96	5
TAP	45	192	5
TAP	46	0	3
TAP	46	96	3
TAP	46	192	4
TAP	47	0	2
TAP	47	0	5
TAP	48	0	6
TAP	48	96	6
TAP	48	192	7
TAP	49	0	1
TAP	49	96	1
TAP	49	192	0
TAP	50	0	7
TAP	50	96	7
TAP	50	192	6
TAP	51	0	0
TAP	51	96	0
TAP	51	192	1
TAP	52	0	2
TAP	52	0	3
TAP	52	96	2
TAP	52	96	3
TAP	52	192	2
TAP	52	192	3
TAP	53	0	4
TAP	53	0	5
TAP	53	96	4
TAP	53	96	5
TAP	53	192	4
TAP	53	192	5
TAP	54	0	3
TAP	54	96	3
TAP	54	192	4
HLD	55	0	2	192
HLD	55	0	5	192
TAP	56	0	1
TAP	56	96	1
TAP	56	192	0
TAP	57	0	6
TAP	57	96	6
TAP	57	192	7
TAP	58	0	0
TAP	58	96	0
TAP	58	192	1
TAP	59	0	7
TAP	59	96	7
TAP	59	192	6
TAP	60	0	4
TAP	60	0	5
TAP	60	96	4
TAP	60	96	5
TAP	60	192	4
TAP	60	192	5
TAP	61	0	2
TAP	61	0	3
TAP	61	96	2
TAP	61	96	3
TAP	61	192	2
TAP	61	192	3
TAP	62	0	4
TAP	62	96	4
TAP	62	192	3
BRK	63	0	2
BRK	63	0	5
TAP	64	0	4
TAP	64	0	5
TAP	64	192	4
TAP	64	192	5
HLD	65	0	6	192
TAP	66	0	2
TAP	66	0	3
TAP	66	192	2
TAP	66	192	3
HLD	67	0	1	192
TAP	68	0	2
TAP	68	0	3
TAP	68	192	4
TAP	68	192	5
TAP	69	0	3
TAP	69	0	4
TAP	70	0	1
TAP	70	192	2
TAP	71	0	3
TAP	71	192	3
TAP	71	192	4
TAP	72	0	5
TAP	72	96	5
TAP	72	192	6
TAP	73	0	7
TAP	73	96	7
BRK	73	192	0
TAP	74	0	0
TAP	74	96	0
TAP	74	288	7
TAP	75	0	7
TAP	75	96	7
TAP	75	288	0
TAP	76	0	0
TAP	76	96	0
TAP	76	288	2
TAP	77	0	2
TAP	77	96	2
TAP	77	288	3
TAP	78	0	3
TAP	78	96	3
TAP	78	288	4
TAP	79	0	4
TAP	79	96	4
TAP	79	288	5
TAP	80	0	5
TAP	80	96	5
TAP	80	288	6
TAP	81	0	6
TAP	81	96	6
TAP	81	288	7
TAP	82	0	7
TAP	82	96	7
TAP	82	288	6
TAP	83	0	6
TAP	83	96	6
TAP	83	288	0
TAP	84	0	0
TAP	84	96	0
TAP	84	288	1
TAP	85	0	1
TAP	85	96	1
TAP	86	0	6
TAP	86	0	7
TAP	86	192	4
TAP	86	192	5
TAP	87	0	2
TAP	87	0	3
TAP	87	192	0
TAP	87	192	1
TAP	88	0	0
TAP	88	96	0
TAP	88	192	7
TAP	89	0	1
TAP	89	0	6
TAP	89	288	0
TAP	90	0	0
TAP	90	96	0
TAP	90	288	7
TAP	91	0	7
TAP	91	96	7
TAP	91	288	1
TAP	92	0	1
TAP	92	96	1
TAP	92	288	6
TAP	93	0	6
TAP	93	96	6
TAP	93	288	2
TAP	93	288	3
TAP	94	0	2
TAP	94	0	3
TAP	94	96	2
TAP	94	96	3
TAP	94	288	4
TAP	94	288	5
TAP	95	0	4
TAP	95	0	5
TAP	95	96	4
TAP	95	96	5
TAP	95	288	5
TAP	96	0	5
TAP	96	96	5
TAP	96	288	3
TAP	97	0	3
TAP	97	96	3
TAP	97	288	1
TAP	98	0	1
TAP	98	96	1
TAP	98	288	5
TAP	99	0	5
TAP	99	96	5
TAP	99	288	6
TAP	100	0	6
TAP	100	96	6
TAP	100	288	1
TAP	101	0	1
TAP	101	96	1
TAP	102	0	4
TAP	102	192	5
TAP	103	0	6
TAP	103	192	7
TAP	104	0	1
TAP	104	0	6
TAP	105	192	2
TAP	106	192	5
TAP	107	192	5
TAP	108	0	2
TAP	108	0	5
TAP	108	192	1
TAP	109	192	1
STR	110	192	0
SI_	110	192	0	96	288	4

T_REC_TAP	267
T_REC_BRK	3
T_REC_XTP	0
T_REC_HLD	4
T_REC_XHO	0
T_REC_STR	2
T_REC_BST	0
T_REC_XST	0
T_REC_TTP	0
T_REC_THO	0
T_REC_SLD	2
T_REC_ALL	278
T_NUM_TAP	269
T_NUM_BRK	3
T_NUM_HLD	4
T_NUM_SLD	2
T_NUM_ALL	278
T_JUDGE_TAP	272
T_JUDGE_HLD	16
T_JUDGE_SLD	2
T_JUDGE_ALL	290
TTM_EACHPAIRS	40
TTM_SCR_TAP	134500
TTM_SCR_BRK	7800
TTM_SCR_HLD	4000
TTM_SCR_SLD	3000
TTM_SCR_ALL	149300
TTM_SCR_S	144550
TTM_SCR_SS	149000
TTM_RAT_ACV	10020

