VERSION	0.00.00	1.03.00
FES_MODE	0
BPM_DEF	175.000	175.000	175.000	175.000
MET_DEF	4	4
RESOLUTION	384
CLK_DEF	384
COMPATIBLE_CODE	MA2

BPM	0	0	175.000
MET	0	0	4	4

TAP	1	0	4
TAP	1	144	3
TAP	1	288	3
TAP	1	288	4
TAP	2	0	5
TAP	2	48	4
TAP	2	96	3
TAP	2	144	2
TAP	2	240	4
TAP	2	264	3
TAP	2	288	4
TAP	2	336	2
TAP	3	0	2
TAP	3	96	3
TAP	3	192	4
TAP	3	288	5
TAP	4	0	2
TAP	4	0	3
TAP	4	48	6
TAP	4	72	7
TAP	4	96	6
TAP	4	144	0
TAP	4	192	1
TAP	4	240	2
TAP	4	288	3
TAP	4	336	4
HLD	5	0	6	96
TAP	5	96	5
TAP	5	144	5
TAP	5	240	0
TAP	5	240	1
TAP	5	336	4
TAP	5	336	5
TAP	6	48	1
TAP	6	48	3
TAP	6	96	2
TAP	6	192	5
TAP	6	240	6
TAP	6	288	7
TAP	6	336	0
HLD	7	0	1	96
TAP	7	96	2
TAP	7	144	2
TAP	7	240	6
TAP	7	240	7
TAP	7	336	2
TAP	7	336	3
TAP	8	48	4
TAP	8	48	6
TAP	8	96	5
TAP	8	192	2
TAP	8	192	4
TAP	8	240	1
TAP	8	240	3
TAP	8	288	2
TAP	8	288	3
TAP	9	0	3
TAP	9	32	4
TAP	9	64	3
TAP	9	96	4
TAP	9	192	3
TAP	9	192	4
TAP	9	288	3
TAP	9	288	4
TAP	9	352	5
TAP	10	0	4
TAP	10	32	5
TAP	10	64	4
TAP	10	96	5
TAP	10	192	3
TAP	10	192	4
TAP	10	288	3
TAP	10	288	4
TAP	10	352	2
TAP	11	0	3
TAP	11	32	2
TAP	11	64	3
TAP	11	96	2
TAP	11	192	3
TAP	11	192	4
TAP	11	288	3
TAP	11	288	4
TAP	11	352	5
TAP	12	0	2
TAP	12	32	5
TAP	12	64	2
TAP	12	96	5
TAP	12	160	1
TAP	12	192	6
TAP	12	288	0
TAP	12	288	7
HLD	13	0	6	288
HLD	13	192	4	288
HLD	14	0	3	288
HLD	14	192	1	480
HLD	15	0	6	288
BRK	16	0	0
BRK	16	96	0
BRK	16	192	0
TAP	16	240	7
TAP	16	288	6
TAP	16	336	5
HLD	17	0	3	96
TAP	17	96	1
TAP	17	144	1
HLD	17	240	5	192
HLD	17	336	2	96
TAP	18	96	2
TAP	18	96	5
STR	18	192	3
SI_	18	192	3	96	48	0
STR	18	192	4
SI_	18	192	4	96	48	7
TAP	18	288	3
TAP	18	288	4
TAP	19	0	1
TAP	19	0	6
TAP	19	48	2
TAP	19	72	3
TAP	19	96	2
TAP	19	144	5
TAP	19	168	4
TAP	19	192	5
TAP	19	240	2
TAP	19	288	1
HLD	19	336	0	96
TAP	20	48	1
STR	20	96	1
SI_	20	96	1	96	48	5
STR	20	192	0
SI_	20	192	0	96	48	4
HLD	21	0	4	96
TAP	21	96	6
TAP	21	144	6
TAP	21	240	0
TAP	21	288	1
TAP	21	336	2
TAP	22	48	5
TAP	22	96	5
TAP	22	192	2
TAP	22	192	4
TAP	22	288	3
TAP	22	288	5
TAP	23	0	2
TAP	23	0	5
TAP	23	48	6
TAP	23	72	7
TAP	23	96	6
TAP	23	144	1
TAP	23	168	0
TAP	23	192	1
TAP	23	240	7
TAP	23	288	6
TAP	23	336	5
TAP	24	0	4
TAP	24	48	3
TAP	24	96	2
STR	24	144	1
SUR	24	144	1	96	48	6
TAP	24	336	5
TAP	25	0	3
TAP	25	0	6
TAP	25	48	5
TAP	25	72	4
TAP	25	96	5
TAP	25	144	6
TAP	25	192	7
TAP	25	240	0
TAP	25	288	1
TAP	25	336	2
TAP	26	0	1
TAP	26	0	4
TAP	26	48	2
TAP	26	72	3
TAP	26	96	2
TAP	26	144	1
TAP	26	192	0
TAP	26	240	7
TAP	26	288	6
TAP	26	336	5
TAP	27	0	3
TAP	27	0	6
TAP	27	48	5
TAP	27	72	4
TAP	27	96	5
TAP	27	144	6
TAP	27	192	7
TAP	27	240	0
TAP	27	288	1
STR	27	336	2
SI_	27	336	2	96	48	7
STR	28	48	4
SI_	28	48	4	96	48	0
STR	28	144	3
SI_	28	144	3	96	48	7
BRK	28	240	0
BRK	28	288	0
TAP	29	0	5
TAP	29	0	6
TAP	29	96	1
TAP	29	96	2
TAP	29	192	5
TAP	29	192	6
TAP	29	288	1
TAP	29	336	1
TAP	30	0	2
TAP	30	48	5
TAP	30	72	4
TAP	30	96	5
TAP	30	144	3
TAP	30	192	2
HLD	30	240	1	96
TAP	30	336	0
TAP	31	0	0
TAP	31	96	6
TAP	31	144	6
TAP	31	144	7
TAP	31	240	0
TAP	31	240	5
TAP	31	336	1
TAP	32	0	1
TAP	32	48	2
TAP	32	72	3
TAP	32	96	2
TAP	32	144	6
STR	32	192	5
SUR	32	192	5	96	48	2
HLD	33	0	3	96
HLD	33	0	5	96
HLD	33	192	2	96
HLD	33	192	4	96
TAP	34	0	4
TAP	34	0	5
TAP	34	96	2
TAP	34	96	3
TAP	34	192	3
TAP	34	192	5
TAP	34	288	2
TAP	34	288	4
TAP	35	0	4
TAP	35	96	3
TAP	35	192	6
TAP	35	240	7
TAP	35	288	0
TAP	35	336	1
TAP	36	0	2
TAP	36	0	3
TAP	36	48	5
TAP	36	72	4
TAP	36	96	5
TAP	36	144	0
TAP	36	192	1
TAP	36	240	2
TAP	36	288	3
TAP	36	336	4
TAP	37	0	0
TAP	37	0	6
TAP	37	48	1
TAP	37	72	0
TAP	37	96	1
TAP	37	144	4
TAP	37	192	5
STR	37	240	6
SI_	37	240	6	96	48	2
BRK	37	336	6
TAP	38	48	1
TAP	38	72	0
TAP	38	96	1
TAP	38	144	4
TAP	38	192	5
TAP	38	240	6
HLD	38	336	0	96
TAP	39	48	1
TAP	39	96	0
TAP	39	144	7
TAP	39	192	6
TAP	39	240	7
TAP	39	288	0
TAP	39	336	1
TAP	40	0	2
TAP	40	0	3
TAP	40	48	1
TAP	40	72	3
TAP	40	96	2
TAP	40	144	5
STR	40	192	4
SI_	40	192	4	96	48	0
TAP	41	0	1
TAP	41	0	7
TAP	41	48	6
TAP	41	72	7
TAP	41	96	6
TAP	41	144	3
TAP	41	192	2
STR	41	240	1
SI_	41	240	1	96	48	5
BRK	41	336	1
TAP	42	48	6
TAP	42	72	7
TAP	42	96	6
TAP	42	144	3
TAP	42	192	2
TAP	42	240	1
HLD	42	336	7	96
TAP	43	48	6
TAP	43	96	7
TAP	43	144	0
TAP	43	192	1
TAP	43	240	0
TAP	43	288	7
TAP	43	336	6
TAP	44	0	4
TAP	44	0	5
TAP	44	48	6
TAP	44	72	4
TAP	44	96	5
TAP	44	144	2
STR	44	192	3
SI_	44	192	3	96	48	7
TAP	45	0	4
TAP	45	0	5
TAP	45	48	1
TAP	45	96	2
TAP	45	96	3
TAP	45	144	6
TAP	45	192	4
TAP	45	192	5
HLD	45	240	1	96
TAP	45	336	0
TAP	46	48	6
TAP	46	48	7
TAP	46	96	2
TAP	46	144	0
TAP	46	144	1
TAP	46	192	5
TAP	46	240	6
TAP	46	240	7
HLD	46	336	2	96
TAP	47	48	3
TAP	47	96	7
TAP	47	144	4
TAP	47	144	5
TAP	47	192	0
TAP	47	240	2
TAP	47	240	3
TAP	47	288	7
TAP	47	336	4
TAP	47	336	5
TAP	48	48	0
TAP	48	48	1
TAP	48	144	6
TAP	48	192	4
TAP	48	240	5
TAP	48	288	2
TAP	48	288	3
TAP	48	312	2
TAP	48	312	3
TAP	49	0	5
TAP	49	48	6
TAP	49	96	0
TAP	49	96	7
TAP	49	144	1
TAP	49	192	2
TAP	49	192	3
TAP	49	240	1
HLD	49	336	5	96
TAP	50	48	6
TAP	50	96	7
TAP	50	144	0
TAP	50	192	1
TAP	50	288	3
TAP	50	336	2
TAP	50	336	3
TAP	51	48	4
TAP	51	48	5
TAP	51	96	2
TAP	51	144	2
TAP	51	144	3
TAP	51	192	5
TAP	51	240	4
TAP	51	240	5
TAP	51	288	1
TAP	51	336	2
TAP	51	336	3
TAP	52	0	6
TAP	52	48	4
TAP	52	48	5
TAP	52	96	0
TAP	52	144	2
TAP	52	144	3
STR	52	192	1
SUR	52	192	1	96	48	7
TAP	52	192	4
BRK	52	288	1
TAP	53	0	7
TAP	53	48	6
TAP	53	96	5
TAP	53	144	4
TAP	53	192	2
TAP	53	216	3
TAP	53	240	2
TAP	53	336	3
TAP	53	336	5
TAP	54	0	2
TAP	54	0	4
TAP	54	72	4
TAP	54	72	5
TAP	54	144	2
TAP	54	144	3
TAP	54	240	6
TAP	54	264	4
TAP	54	288	5
TAP	54	312	3
TAP	54	336	4
TAP	54	360	2
TAP	55	0	3
TAP	55	72	0
TAP	55	72	1
TAP	55	144	4
TAP	55	144	5
TAP	55	192	0
TAP	55	240	1
TAP	55	288	2
TAP	55	336	3
TAP	56	0	5
TAP	56	24	4
TAP	56	48	5
TAP	56	96	6
TAP	56	144	4
TAP	56	192	2
TAP	56	240	1
TAP	56	264	0
TAP	56	288	1
TAP	56	336	0
TAP	56	336	6
TAP	57	0	1
TAP	57	0	7
TAP	57	96	3
TAP	57	96	4
TAP	57	192	2
TAP	57	216	4
TAP	57	240	3
TAP	57	264	5
TAP	57	288	4
STR	57	336	7
SCL	57	336	7	96	48	4
TAP	58	0	7
STR	58	48	1
SV_	58	48	1	96	48	2
TAP	58	96	1
STR	58	144	0
SUL	58	144	0	96	48	3
TAP	58	192	0
TAP	58	336	1
TAP	58	336	2
HLD	59	0	0	72
HLD	59	72	1	72
TAP	59	144	2
TAP	59	192	1
TAP	59	240	0
TAP	59	288	7
TAP	59	336	6
TAP	60	0	1
TAP	60	24	3
TAP	60	48	2
TAP	60	72	5
TAP	60	96	3
TAP	60	120	6
TAP	60	144	4
TAP	60	168	5
TAP	60	192	3
TAP	60	240	3
TAP	60	240	4
BRK	60	288	1
BRK	60	288	6
TAP	61	0	4
TAP	61	0	5
TAP	61	48	2
TAP	61	72	3
TAP	61	96	2
TAP	61	144	7
TAP	61	192	6
TAP	61	240	5
TAP	61	288	4
TAP	61	336	3
STR	62	0	2
SUL	62	0	2	96	48	3
TAP	62	48	2
STR	62	96	0
SCL	62	96	0	96	48	5
TAP	62	144	0
STR	62	192	1
SV_	62	192	1	96	48	6
TAP	62	240	1
TAP	62	336	5
STR	63	0	5
SUR	63	0	5	96	48	4
TAP	63	48	5
STR	63	96	7
SCR	63	96	7	96	48	2
TAP	63	144	7
STR	63	192	6
SV_	63	192	6	96	48	1
TAP	63	240	6
TAP	64	0	1
TAP	64	0	4
TAP	64	48	2
TAP	64	72	3
TAP	64	96	2
TAP	64	144	7
TAP	64	192	0
TAP	64	240	5
TAP	64	264	4
TAP	64	288	5
TAP	64	336	0
TAP	65	0	7
TAP	65	48	2
TAP	65	72	3
TAP	65	96	2
TAP	65	144	3
TAP	65	144	4
STR	65	192	1
SI_	65	192	1	96	48	5
STR	65	192	6
SI_	65	192	6	96	48	2
STR	66	0	7
SV_	66	0	7	96	48	6
TAP	66	48	7
STR	66	96	4
SCL	66	96	4	96	48	1
TAP	66	144	4
STR	66	192	5
SV_	66	192	5	96	48	7
TAP	66	240	5
TAP	66	336	0
STR	67	0	0
SV_	67	0	0	96	48	1
TAP	67	48	0
STR	67	96	3
SCR	67	96	3	96	48	6
TAP	67	144	3
STR	67	192	2
SV_	67	192	2	96	48	0
TAP	67	240	2
TAP	68	0	3
TAP	68	0	6
TAP	68	48	5
TAP	68	72	4
TAP	68	96	5
TAP	68	144	0
TAP	68	192	7
TAP	68	240	2
TAP	68	264	3
TAP	68	288	2
TAP	68	336	7
TAP	69	0	0
TAP	69	48	5
TAP	69	72	4
TAP	69	96	5
TAP	69	144	3
TAP	69	144	4
TAP	69	192	0
TAP	69	192	7
TAP	69	240	3
TAP	69	240	4
BRK	69	288	1
BRK	69	288	6
TAP	70	0	2
TAP	70	0	3
TAP	70	48	6
TAP	70	96	4
TAP	70	96	5
TAP	70	144	1
TAP	70	192	2
TAP	70	192	3
HLD	70	240	6	96
TAP	70	336	7
TAP	71	48	0
TAP	71	48	1
TAP	71	96	5
TAP	71	144	6
TAP	71	144	7
TAP	71	192	2
TAP	71	240	0
TAP	71	240	1
HLD	71	336	5	96
TAP	72	48	4
TAP	72	96	0
TAP	72	144	2
TAP	72	144	3
TAP	72	192	7
TAP	72	240	4
TAP	72	240	5
TAP	72	288	0
TAP	72	336	2
TAP	72	336	3
TAP	73	48	6
TAP	73	48	7
TAP	73	144	1
TAP	73	192	3
TAP	73	240	2
TAP	73	288	4
TAP	73	288	5
TAP	73	312	4
TAP	73	312	5
TAP	74	0	2
TAP	74	48	1
TAP	74	96	0
TAP	74	96	7
TAP	74	144	6
TAP	74	192	4
TAP	74	192	5
TAP	74	240	3
HLD	74	336	2	96
TAP	75	48	1
TAP	75	96	0
TAP	75	144	7
TAP	75	192	6
TAP	75	288	4
TAP	75	336	4
TAP	75	336	5
TAP	76	48	2
TAP	76	48	3
TAP	76	96	4
TAP	76	144	4
TAP	76	144	5
TAP	76	192	2
TAP	76	240	2
TAP	76	240	3
TAP	76	288	6
TAP	76	336	4
TAP	76	336	5
TAP	77	0	1
TAP	77	48	2
TAP	77	48	3
TAP	77	96	7
TAP	77	144	4
TAP	77	144	5
TAP	77	192	3
TAP	77	192	6
TAP	77	240	2
TAP	77	240	3
TAP	77	288	1
TAP	77	288	4
TAP	77	336	2
TAP	77	336	3
TAP	78	0	4
TAP	78	0	5
TAP	78	48	1
TAP	78	48	6
TAP	78	96	0
TAP	78	96	7
TAP	78	144	2
TAP	78	144	5
STR	78	192	3
SCL	78	192	3	96	48	1
STR	78	192	4
SCR	78	192	4	96	48	6
BRK	78	288	3
BRK	78	288	4
TAP	79	0	2
TAP	79	0	4
TAP	79	48	1
TAP	79	72	0
TAP	79	96	1
TAP	79	144	6
TAP	79	168	7
TAP	79	192	6
TAP	79	240	1
TAP	79	288	0
TAP	79	336	7
TAP	80	0	2
TAP	80	24	3
TAP	80	48	2
TAP	80	72	1
TAP	80	96	2
TAP	80	144	6
TAP	80	192	4
TAP	80	192	5
TAP	80	240	3
TAP	80	288	4
TAP	80	288	5
TAP	80	336	6
TAP	81	0	0
TAP	81	24	4
TAP	81	48	1
TAP	81	72	5
TAP	81	96	2
TAP	81	120	6
TAP	81	144	3
TAP	81	168	7
TAP	81	192	1
TAP	81	216	6
TAP	81	240	0
TAP	81	264	5
TAP	81	288	1
TAP	81	312	6
TAP	81	336	2
TAP	81	360	7
TAP	82	0	0
TAP	82	48	6
TAP	82	72	7
TAP	82	96	6
TAP	82	144	1
TAP	82	168	0
TAP	82	192	1
TAP	82	240	7
TAP	82	264	0
TAP	82	288	1
TAP	82	288	6
TAP	83	0	1
STR	83	48	0
SI_	83	48	0	96	48	2
TAP	83	96	7
STR	83	144	6
SI_	83	144	6	96	48	4
STR	83	240	7
SI_	83	240	7	96	48	3
TAP	84	48	0
TAP	84	96	0
TAP	84	192	2
TAP	84	240	3
TAP	84	288	4
TAP	84	336	5
TAP	85	0	6
STR	85	48	7
SI_	85	48	7	96	48	5
TAP	85	96	0
STR	85	144	1
SI_	85	144	1	96	48	3
STR	85	240	0
SI_	85	240	0	96	48	4
TAP	86	48	6
TAP	86	48	7
TAP	86	144	2
TAP	86	144	3
STR	86	192	1
SI_	86	192	1	96	48	5
TAP	86	192	4
BRK	86	288	1

T_REC_TAP	618
T_REC_BRK	15
T_REC_XTP	0
T_REC_HLD	27
T_REC_XHO	0
T_REC_STR	40
T_REC_BST	0
T_REC_XST	0
T_REC_TTP	0
T_REC_THO	0
T_REC_SLD	40
T_REC_ALL	740
T_NUM_TAP	658
T_NUM_BRK	15
T_NUM_HLD	27
T_NUM_SLD	40
T_NUM_ALL	740
T_JUDGE_TAP	673
T_JUDGE_HLD	80
T_JUDGE_SLD	40
T_JUDGE_ALL	793
TTM_EACHPAIRS	125
TTM_SCR_TAP	329000
TTM_SCR_BRK	39000
TTM_SCR_HLD	27000
TTM_SCR_SLD	60000
TTM_SCR_ALL	455000
TTM_SCR_S	439900
TTM_SCR_SS	453500
TTM_RAT_ACV	10033

