VERSION	0.00.00	1.03.00
FES_MODE	0
BPM_DEF	175.000	175.000	175.000	175.000
MET_DEF	4	4
RESOLUTION	384
CLK_DEF	384
COMPATIBLE_CODE	MA2

BPM	0	0	175.000
MET	0	0	4	4

TAP	1	0	5
TAP	1	144	4
TAP	1	288	0
TAP	1	288	7
TAP	2	0	3
TAP	2	144	2
TAP	2	240	0
TAP	2	288	1
TAP	3	0	1
TAP	3	0	3
TAP	3	96	2
TAP	3	96	4
TAP	3	192	3
TAP	3	192	5
TAP	3	288	4
TAP	3	288	6
BRK	4	0	0
BRK	4	0	7
TAP	4	144	1
TAP	4	192	1
TAP	4	288	3
TAP	5	0	5
TAP	5	96	5
TAP	5	144	4
TAP	5	240	4
TAP	5	336	3
TAP	6	48	3
TAP	6	96	2
TAP	6	192	1
TAP	6	240	0
TAP	6	288	1
TAP	7	0	2
TAP	7	96	2
TAP	7	144	3
TAP	7	240	3
TAP	7	336	4
TAP	8	48	4
TAP	8	96	5
TAP	8	192	6
TAP	8	240	7
TAP	8	288	6
HLD	9	0	0	192
TAP	9	192	7
TAP	9	288	6
TAP	9	352	3
TAP	10	0	4
TAP	10	96	3
TAP	10	192	2
TAP	10	192	5
TAP	10	288	1
HLD	11	0	7	192
TAP	11	192	0
TAP	11	288	1
TAP	11	352	4
TAP	12	0	3
TAP	12	96	4
TAP	12	192	2
TAP	12	192	5
TAP	12	288	6
HLD	13	0	0	192
HLD	13	192	1	192
HLD	14	0	5	192
HLD	14	192	3	192
STR	15	0	4
SI_	15	0	4	96	96	0
BRK	16	0	7
BRK	16	96	7
BRK	16	192	7
TAP	17	0	2
TAP	17	96	3
TAP	17	144	2
TAP	17	240	1
HLD	17	336	3	96
TAP	18	48	5
TAP	18	144	6
TAP	18	192	7
TAP	18	240	6
TAP	18	288	7
TAP	19	0	0
TAP	19	48	5
TAP	19	96	0
TAP	19	192	6
TAP	19	240	3
TAP	19	288	6
TAP	20	0	1
TAP	20	48	0
TAP	20	144	6
TAP	20	192	7
TAP	20	288	1
TAP	20	288	6
TAP	21	0	5
TAP	21	96	4
TAP	21	144	5
TAP	21	240	6
HLD	21	336	4	96
TAP	22	48	2
TAP	22	144	1
TAP	22	192	0
TAP	22	240	1
TAP	22	288	0
TAP	23	0	0
TAP	23	0	5
TAP	23	96	2
TAP	23	96	7
TAP	23	192	1
TAP	23	192	4
TAP	23	288	3
TAP	23	288	6
TAP	24	0	2
TAP	24	48	3
TAP	24	96	2
HLD	24	144	3	96
HLD	24	240	4	96
TAP	24	336	5
TAP	25	48	6
TAP	25	96	0
TAP	25	144	6
TAP	25	192	5
TAP	25	240	5
TAP	25	288	3
TAP	25	336	3
TAP	26	48	1
TAP	26	96	7
TAP	26	144	1
TAP	26	192	2
TAP	26	240	2
TAP	26	288	4
TAP	26	336	4
TAP	27	48	6
TAP	27	96	0
TAP	27	144	6
HLD	27	192	0	96
TAP	27	288	2
HLD	27	336	2	96
TAP	28	48	4
TAP	28	96	5
TAP	28	144	4
TAP	28	192	5
TAP	28	288	3
TAP	28	288	6
TAP	29	0	0
STR	29	0	1
SI_	29	0	1	96	48	4
STR	29	192	6
SI_	29	192	6	96	48	3
TAP	29	192	7
TAP	30	0	0
TAP	30	48	1
TAP	30	96	7
TAP	30	144	6
TAP	30	240	5
TAP	30	336	4
HLD	31	0	3	96
TAP	31	96	2
HLD	31	144	3	96
TAP	31	240	4
TAP	31	336	6
TAP	32	0	0
TAP	32	48	0
TAP	32	96	7
TAP	32	144	7
TAP	32	192	5
TAP	32	288	3
TAP	32	288	4
HLD	33	0	2	96
HLD	33	0	5	96
HLD	33	192	2	96
HLD	33	192	5	96
TAP	34	0	0
TAP	34	0	7
STR	34	96	0
SI_	34	96	0	96	48	4
STR	34	96	7
SI_	34	96	7	96	48	3
TAP	35	0	0
TAP	35	0	1
TAP	35	96	6
TAP	35	96	7
TAP	35	192	1
TAP	35	192	7
TAP	35	288	0
TAP	35	288	6
BRK	36	0	1
BRK	36	0	6
TAP	36	192	2
TAP	36	288	2
HLD	37	0	3	96
HLD	37	96	5	96
TAP	37	192	7
TAP	37	240	7
HLD	38	0	4	96
HLD	38	96	2	96
TAP	38	192	0
TAP	38	240	0
HLD	39	0	2	96
HLD	39	96	3	96
TAP	39	192	4
TAP	39	240	5
TAP	39	288	4
HLD	40	0	5	96
HLD	40	96	4	96
TAP	40	192	3
TAP	40	240	2
TAP	40	288	3
HLD	41	0	0	96
HLD	41	96	6	96
TAP	41	192	4
TAP	41	240	4
HLD	42	0	7	96
HLD	42	96	1	96
TAP	42	192	3
TAP	42	240	3
HLD	43	0	5	96
HLD	43	96	7	96
TAP	43	192	0
TAP	43	240	1
TAP	43	288	0
HLD	44	0	2	96
HLD	44	96	0	96
TAP	44	192	7
TAP	44	240	6
TAP	44	288	7
STR	45	0	0
SSL	45	0	0	96	96	4
TAP	45	192	6
TAP	45	240	6
STR	46	0	7
SSR	46	0	7	96	96	3
TAP	46	192	1
TAP	46	240	1
STR	47	0	0
SCR	47	0	0	96	48	3
STR	47	192	4
SCR	47	192	4	96	48	7
STR	48	0	0
SCL	48	0	0	96	96	3
BRK	48	288	7
STR	49	0	6
SUL	49	0	6	96	96	5
TAP	49	192	0
TAP	49	240	0
STR	50	0	1
SUR	50	0	1	96	96	2
TAP	50	192	7
TAP	50	240	7
TAP	51	0	0
TAP	51	0	6
TAP	51	48	0
TAP	51	48	6
TAP	51	192	1
TAP	51	192	7
TAP	51	240	1
TAP	51	240	7
TAP	52	0	0
TAP	52	48	7
TAP	52	96	2
TAP	52	144	5
STR	52	192	1
SI_	52	192	1	96	48	5
BRK	52	288	6
HLD	53	0	7	144
TAP	53	144	3
HLD	53	192	3	144
TAP	53	336	5
TAP	54	0	5
TAP	54	72	7
TAP	54	144	1
TAP	54	240	3
TAP	54	288	4
STR	55	0	2
SUL	55	0	2	96	48	6
TAP	55	96	4
STR	55	192	5
SUR	55	192	5	96	48	1
TAP	55	288	3
TAP	56	0	3
TAP	56	48	7
TAP	56	96	2
TAP	56	144	6
TAP	56	192	1
TAP	56	240	5
TAP	56	288	0
HLD	57	0	1	96
TAP	57	96	2
HLD	57	192	5	96
TAP	57	288	6
HLD	58	0	3	96
TAP	58	96	2
HLD	58	192	7	96
TAP	58	288	6
TAP	59	0	1
TAP	59	96	0
TAP	59	96	7
TAP	59	192	5
TAP	59	288	3
TAP	59	288	4
TAP	60	0	0
TAP	60	48	1
TAP	60	96	2
TAP	60	144	3
TAP	60	192	4
TAP	60	240	5
TAP	60	288	6
BRK	61	0	0
BRK	61	0	7
TAP	61	192	5
TAP	61	288	5
HLD	62	0	4	96
HLD	62	96	2	96
TAP	62	192	0
TAP	62	240	0
HLD	63	0	3	96
HLD	63	96	5	96
TAP	63	192	7
TAP	63	240	7
HLD	64	0	0	96
HLD	64	96	6	96
TAP	64	192	4
TAP	64	240	5
TAP	64	288	4
STR	65	0	6
SI_	65	0	6	96	48	1
STR	65	192	2
SI_	65	192	2	96	48	5
HLD	66	0	7	96
HLD	66	96	1	96
TAP	66	192	3
TAP	66	240	3
HLD	67	0	0	96
HLD	67	96	6	96
TAP	67	192	4
TAP	67	240	4
HLD	68	0	5	96
HLD	68	96	6	96
TAP	68	192	7
TAP	68	240	0
TAP	68	288	7
TAP	69	0	3
TAP	69	48	4
TAP	69	96	3
STR	69	192	1
SI_	69	192	1	96	48	4
STR	69	192	6
SI_	69	192	6	96	48	3
TAP	70	0	2
STR	70	96	1
SI_	70	96	1	96	48	5
TAP	70	192	7
TAP	70	240	7
TAP	71	0	5
STR	71	96	6
SI_	71	96	6	96	48	2
TAP	71	192	0
TAP	71	240	0
STR	72	0	7
SCL	72	0	7	96	48	4
STR	72	192	3
SCL	72	192	3	96	48	0
STR	73	0	7
SCR	73	0	7	96	96	4
BRK	73	288	0
STR	74	0	1
SUR	74	0	1	96	96	3
TAP	74	192	6
TAP	74	240	6
STR	75	0	6
SUL	75	0	6	96	96	4
TAP	75	192	1
TAP	75	240	1
TAP	76	0	0
TAP	76	0	4
TAP	76	48	1
TAP	76	48	5
TAP	76	192	3
TAP	76	192	7
TAP	76	240	2
TAP	76	240	6
TAP	77	0	0
TAP	77	48	0
TAP	77	96	6
TAP	77	144	6
TAP	77	192	1
TAP	77	240	1
TAP	77	288	5
TAP	77	336	5
TAP	78	0	3
TAP	78	0	4
TAP	78	48	3
TAP	78	48	4
TAP	78	96	2
TAP	78	96	5
TAP	78	144	2
TAP	78	144	5
STR	78	192	0
SI_	78	192	0	96	48	3
STR	78	192	7
SI_	78	192	7	96	48	4
HLD	79	0	0	96
TAP	79	96	6
HLD	79	144	6	96
TAP	79	240	4
TAP	79	288	5
TAP	80	0	1
TAP	80	48	0
TAP	80	96	1
TAP	80	96	7
TAP	80	192	5
TAP	80	240	4
TAP	80	288	3
TAP	80	288	5
TAP	81	0	0
TAP	81	0	4
TAP	81	96	3
TAP	81	96	6
TAP	81	192	1
TAP	81	192	4
TAP	81	288	3
TAP	81	288	5
TAP	82	0	4
TAP	82	96	2
TAP	82	96	6
TAP	82	192	0
TAP	82	240	7
TAP	82	288	1
TAP	82	288	5
HLD	83	0	7	96
TAP	83	96	1
HLD	83	144	1	96
TAP	83	240	3
TAP	83	288	2
TAP	84	0	6
TAP	84	48	7
TAP	84	96	0
TAP	84	96	6
TAP	84	192	2
TAP	84	240	3
TAP	84	288	2
TAP	84	288	4
HLD	85	0	0	96
TAP	85	96	6
HLD	85	144	6	96
TAP	85	240	3
TAP	85	288	5
TAP	85	336	4
TAP	86	48	6
TAP	86	144	0
TAP	86	192	7
BRK	86	288	1
BRK	86	288	5

T_REC_TAP	321
T_REC_BRK	14
T_REC_XTP	0
T_REC_HLD	58
T_REC_XHO	0
T_REC_STR	28
T_REC_BST	0
T_REC_XST	0
T_REC_TTP	0
T_REC_THO	0
T_REC_SLD	28
T_REC_ALL	449
T_NUM_TAP	349
T_NUM_BRK	14
T_NUM_HLD	58
T_NUM_SLD	28
T_NUM_ALL	449
T_JUDGE_TAP	363
T_JUDGE_HLD	130
T_JUDGE_SLD	28
T_JUDGE_ALL	521
TTM_EACHPAIRS	54
TTM_SCR_TAP	174500
TTM_SCR_BRK	36400
TTM_SCR_HLD	58000
TTM_SCR_SLD	42000
TTM_SCR_ALL	310900
TTM_SCR_S	300250
TTM_SCR_SS	309500
TTM_RAT_ACV	10045

