VERSION	0.00.00	1.03.00
FES_MODE	0
BPM_DEF	175.000	175.000	175.000	175.000
MET_DEF	4	4
RESOLUTION	384
CLK_DEF	384
COMPATIBLE_CODE	MA2

BPM	0	0	175.000
MET	0	0	4	4

STR	4	0	3
SI_	4	0	3	96	192	7
TAP	5	0	6
TAP	5	96	6
TAP	5	192	5
TAP	5	288	5
TAP	6	0	4
TAP	6	96	4
TAP	6	192	3
TAP	6	288	2
TAP	6	288	3
TAP	7	0	1
TAP	7	96	1
TAP	7	192	2
TAP	7	288	2
TAP	8	0	3
TAP	8	96	3
TAP	8	192	4
TAP	8	288	4
TAP	8	288	5
STR	9	0	6
SI_	9	0	6	96	96	4
STR	9	192	0
SI_	9	192	0	96	96	2
STR	10	0	7
SI_	10	0	7	96	144	3
STR	11	0	1
SI_	11	0	1	96	96	3
STR	11	192	7
SI_	11	192	7	96	96	5
STR	12	0	0
SI_	12	0	0	96	144	4
HLD	13	0	5	192
HLD	13	192	4	192
HLD	14	0	3	192
HLD	14	192	1	480
HLD	15	0	6	288
TAP	16	0	2
TAP	16	96	5
TAP	16	192	3
TAP	16	288	4
TAP	17	0	2
TAP	17	96	3
TAP	17	192	3
TAP	17	192	4
TAP	18	0	5
TAP	18	96	4
TAP	18	192	3
TAP	18	192	4
BRK	18	288	1
BRK	18	288	6
TAP	19	0	5
TAP	19	96	5
TAP	19	192	4
TAP	19	288	4
TAP	20	0	3
TAP	20	96	3
TAP	20	192	2
TAP	20	288	2
TAP	21	0	6
TAP	21	96	5
TAP	21	192	3
TAP	21	192	4
TAP	22	0	1
TAP	22	96	2
TAP	22	192	3
TAP	22	192	4
TAP	23	0	1
TAP	23	96	1
TAP	23	192	0
TAP	23	288	0
TAP	24	0	7
TAP	24	96	7
TAP	24	192	6
TAP	24	288	6
TAP	25	0	2
TAP	25	96	3
TAP	25	192	2
TAP	25	288	1
TAP	25	288	4
TAP	26	0	5
TAP	26	96	4
TAP	26	192	5
TAP	26	288	3
TAP	26	288	6
TAP	27	0	1
TAP	27	96	0
TAP	27	192	1
TAP	27	288	2
TAP	27	288	7
TAP	28	0	6
TAP	28	96	7
TAP	28	192	6
TAP	28	288	0
TAP	28	288	5
TAP	29	0	1
BRK	29	96	0
BRK	29	96	7
TAP	29	192	6
BRK	29	288	0
BRK	29	288	7
TAP	30	0	2
TAP	30	96	6
TAP	30	192	1
BRK	30	288	0
BRK	30	288	7
TAP	31	0	5
TAP	31	96	4
TAP	31	192	3
TAP	31	288	2
TAP	32	0	5
TAP	32	96	1
TAP	32	192	6
BRK	32	288	0
BRK	32	288	7
TAP	33	0	1
TAP	33	0	6
TAP	33	192	3
TAP	33	192	4
TAP	34	0	2
TAP	34	0	5
TAP	34	96	1
TAP	34	96	6
TAP	34	192	0
TAP	34	192	7
TAP	35	0	6
TAP	35	96	1
TAP	35	192	6
TAP	35	288	1
TAP	36	0	0
TAP	36	0	7
TAP	36	96	1
TAP	36	96	6
TAP	36	192	2
TAP	36	192	5
TAP	36	288	3
TAP	36	288	4
TAP	37	0	1
TAP	37	96	2
TAP	37	192	3
TAP	37	288	4
TAP	37	288	5
TAP	38	0	6
TAP	38	96	5
TAP	38	192	4
TAP	38	288	2
TAP	38	288	3
TAP	39	0	0
TAP	39	0	1
TAP	39	192	3
TAP	39	192	4
TAP	40	0	6
TAP	40	0	7
TAP	40	192	3
TAP	40	192	4
TAP	40	288	1
TAP	40	288	6
TAP	41	0	5
TAP	41	96	6
TAP	41	192	7
TAP	41	288	0
TAP	41	288	1
TAP	42	0	2
TAP	42	96	1
TAP	42	192	0
TAP	42	288	6
TAP	42	288	7
TAP	43	0	4
TAP	43	0	5
TAP	43	192	0
TAP	43	192	7
TAP	44	0	2
TAP	44	0	3
TAP	44	192	0
TAP	44	192	7
TAP	44	288	2
TAP	44	288	5
TAP	45	0	4
TAP	45	96	3
TAP	45	192	2
TAP	45	288	0
TAP	45	288	1
TAP	46	0	3
TAP	46	96	4
TAP	46	192	5
TAP	46	288	6
TAP	46	288	7
TAP	47	0	0
TAP	47	96	7
TAP	47	192	1
TAP	47	288	6
TAP	48	0	2
TAP	48	96	5
TAP	48	192	3
TAP	48	192	4
TAP	48	288	1
TAP	48	288	6
TAP	49	0	2
TAP	49	96	3
TAP	49	192	2
TAP	49	288	1
TAP	49	288	4
TAP	50	0	5
TAP	50	96	4
TAP	50	192	5
TAP	50	288	3
TAP	50	288	6
TAP	51	0	7
TAP	51	96	0
TAP	51	192	7
TAP	51	288	1
TAP	51	288	6
TAP	52	0	3
TAP	52	96	4
TAP	52	192	2
TAP	52	192	5
BRK	52	288	0
BRK	52	288	7
HLD	53	0	1	192
TAP	53	192	2
TAP	54	0	3
TAP	54	96	4
TAP	54	192	4
TAP	54	192	5
TAP	55	0	6
TAP	55	96	6
TAP	55	192	7
TAP	55	288	7
TAP	56	0	0
STR	56	96	0
SI_	56	96	0	96	96	4
HLD	57	0	6	192
TAP	57	192	5
TAP	58	0	4
TAP	58	96	3
TAP	58	192	2
TAP	58	192	3
TAP	59	0	1
TAP	59	96	1
TAP	59	192	0
TAP	59	288	0
TAP	60	0	7
STR	60	96	7
SI_	60	96	7	96	96	3
TAP	61	0	2
TAP	61	96	3
TAP	61	192	4
TAP	61	288	5
TAP	62	0	6
TAP	62	96	5
TAP	62	192	4
TAP	62	288	2
TAP	62	288	3
TAP	63	0	1
TAP	63	96	2
TAP	63	192	3
TAP	63	288	4
TAP	63	288	5
TAP	64	0	3
TAP	64	0	6
TAP	64	192	0
TAP	64	192	7
TAP	65	0	1
TAP	65	0	4
TAP	65	192	0
TAP	65	192	7
TAP	65	288	1
TAP	65	288	6
TAP	66	0	2
TAP	66	96	1
TAP	66	192	0
TAP	66	288	6
TAP	66	288	7
TAP	67	0	5
TAP	67	96	6
TAP	67	192	7
TAP	67	288	0
TAP	67	288	1
TAP	68	0	2
TAP	68	0	7
TAP	68	192	3
TAP	68	192	4
TAP	69	0	0
TAP	69	0	5
TAP	69	192	3
TAP	69	192	4
TAP	69	288	1
TAP	69	288	6
TAP	70	0	3
TAP	70	96	4
TAP	70	192	5
TAP	70	288	0
TAP	70	288	7
TAP	71	0	4
TAP	71	96	3
TAP	71	192	2
TAP	71	288	0
TAP	71	288	7
TAP	72	0	1
TAP	72	96	6
TAP	72	192	2
TAP	72	288	5
TAP	73	0	3
TAP	73	96	4
TAP	73	192	2
TAP	73	192	5
TAP	73	288	0
TAP	73	288	7
TAP	74	0	1
TAP	74	96	0
TAP	74	192	2
TAP	74	288	3
TAP	74	288	7
TAP	75	0	6
TAP	75	96	7
TAP	75	192	5
TAP	75	288	0
TAP	75	288	4
TAP	76	0	2
TAP	76	0	3
TAP	76	192	4
TAP	76	192	5
TAP	77	0	3
TAP	77	0	4
TAP	77	96	3
TAP	77	96	4
TAP	77	192	3
TAP	77	192	4
TAP	77	288	1
TAP	77	288	6
TAP	78	0	0
TAP	78	48	7
TAP	78	96	0
TAP	78	144	7
STR	78	192	0
SI_	78	192	0	96	96	4
TAP	79	0	5
TAP	79	96	5
TAP	79	192	5
TAP	79	288	4
TAP	79	288	5
TAP	80	0	2
TAP	80	96	2
TAP	80	192	2
TAP	80	288	2
TAP	80	288	3
TAP	81	0	4
TAP	81	96	4
TAP	81	192	2
TAP	81	288	2
TAP	82	0	6
TAP	82	96	6
TAP	82	192	0
TAP	82	288	0
TAP	82	288	7
TAP	83	0	2
TAP	83	96	3
TAP	83	192	4
TAP	83	288	1
TAP	83	288	6
TAP	84	0	5
TAP	84	96	4
TAP	84	192	3
TAP	84	288	1
TAP	84	288	6
TAP	85	0	3
TAP	85	96	4
TAP	85	192	5
TAP	85	288	0
TAP	85	288	7
TAP	86	0	5
TAP	86	96	2
TAP	86	192	1
TAP	86	192	6
BRK	86	288	0
BRK	86	288	7

T_REC_TAP	335
T_REC_BRK	14
T_REC_XTP	0
T_REC_HLD	7
T_REC_XHO	0
T_REC_STR	10
T_REC_BST	0
T_REC_XST	0
T_REC_TTP	0
T_REC_THO	0
T_REC_SLD	10
T_REC_ALL	376
T_NUM_TAP	345
T_NUM_BRK	14
T_NUM_HLD	7
T_NUM_SLD	10
T_NUM_ALL	376
T_JUDGE_TAP	359
T_JUDGE_HLD	36
T_JUDGE_SLD	10
T_JUDGE_ALL	405
TTM_EACHPAIRS	83
TTM_SCR_TAP	172500
TTM_SCR_BRK	36400
TTM_SCR_HLD	7000
TTM_SCR_SLD	15000
TTM_SCR_ALL	230900
TTM_SCR_S	222650
TTM_SCR_SS	229500
TTM_RAT_ACV	10061

