VERSION	0.00.00	1.03.00
FES_MODE	0
BPM_DEF	175.000	175.000	175.000	175.000
MET_DEF	4	4
RESOLUTION	384
CLK_DEF	384
COMPATIBLE_CODE	MA2

BPM	0	0	175.000
MET	0	0	4	4

TAP	3	0	3
TAP	3	192	4
TAP	4	0	3
TAP	4	0	4
TAP	5	0	3
TAP	5	96	3
TAP	5	192	3
TAP	6	0	4
TAP	6	96	4
TAP	6	192	4
TAP	7	0	2
TAP	7	96	2
TAP	7	192	2
TAP	8	0	5
TAP	8	96	5
TAP	8	192	5
TAP	9	0	4
TAP	9	0	5
TAP	9	192	4
TAP	10	0	2
TAP	10	0	3
TAP	10	192	3
TAP	11	0	4
TAP	11	0	5
TAP	11	192	4
TAP	12	0	2
TAP	12	0	3
TAP	12	192	3
HLD	13	0	5	192
HLD	14	0	2	192
HLD	15	0	0	192
HLD	15	0	7	192
TAP	16	0	6
TAP	16	96	6
BRK	16	192	6
TAP	17	0	0
TAP	17	96	0
TAP	17	192	7
TAP	18	0	6
TAP	18	96	6
TAP	18	192	4
TAP	18	192	5
TAP	19	0	3
TAP	19	96	3
TAP	19	192	4
TAP	20	0	3
TAP	20	96	3
TAP	20	192	3
TAP	20	192	4
TAP	21	0	4
TAP	21	96	4
TAP	21	192	3
TAP	22	0	2
TAP	22	96	2
TAP	22	192	0
TAP	22	192	1
TAP	23	0	0
TAP	23	96	0
TAP	23	192	7
TAP	24	0	0
TAP	24	96	0
TAP	24	192	0
TAP	24	192	7
HLD	25	0	1	192
HLD	26	0	2	192
TAP	27	0	3
TAP	27	96	3
TAP	27	192	4
TAP	28	0	5
TAP	28	96	5
TAP	28	192	6
STR	29	0	7
SI_	29	0	7	96	288	3
STR	31	0	1
SI_	31	0	1	96	288	5
TAP	33	0	0
TAP	33	0	7
TAP	33	192	0
TAP	33	192	7
HLD	34	0	1	192
HLD	34	0	6	192
TAP	35	0	3
TAP	35	96	4
TAP	35	192	3
BRK	36	0	2
BRK	36	0	5
TAP	37	0	4
TAP	37	96	5
TAP	37	192	4
TAP	37	192	5
TAP	38	0	3
TAP	38	96	2
TAP	38	192	2
TAP	38	192	3
HLD	39	0	1	192
HLD	40	0	0	192
TAP	41	0	7
TAP	41	96	6
TAP	41	192	6
TAP	41	192	7
TAP	42	0	0
TAP	42	96	1
TAP	42	192	0
TAP	42	192	1
HLD	43	0	6	192
HLD	44	0	7	192
TAP	45	0	0
TAP	45	96	0
TAP	45	192	1
TAP	46	0	7
TAP	46	96	7
TAP	46	192	6
TAP	47	0	0
TAP	47	96	0
TAP	47	192	1
TAP	47	288	1
TAP	48	0	2
TAP	48	96	2
TAP	48	192	2
TAP	48	192	3
TAP	49	0	3
TAP	49	96	3
TAP	49	192	2
TAP	50	0	4
TAP	50	96	4
TAP	50	192	5
TAP	51	0	4
TAP	51	0	5
TAP	51	192	2
TAP	51	192	3
TAP	52	0	3
TAP	52	0	4
TAP	52	96	3
TAP	52	96	4
BRK	52	192	3
BRK	52	192	4
HLD	53	0	2	192
HLD	54	0	1	192
TAP	55	0	1
TAP	55	96	1
TAP	55	192	0
TAP	56	0	7
TAP	56	96	7
TAP	56	192	6
HLD	57	0	5	192
HLD	58	0	6	192
TAP	59	0	6
TAP	59	96	6
TAP	59	192	7
TAP	60	0	0
TAP	60	96	0
TAP	60	192	1
TAP	62	0	4
TAP	62	96	3
TAP	62	192	2
TAP	62	192	3
TAP	63	0	3
TAP	63	96	4
TAP	63	192	4
TAP	63	192	5
HLD	64	0	2	192
HLD	64	0	3	192
HLD	65	0	4	192
HLD	65	0	5	192
TAP	66	0	7
TAP	66	96	0
TAP	66	192	0
TAP	66	192	1
TAP	67	0	0
TAP	67	96	7
TAP	67	192	6
TAP	67	192	7
HLD	68	0	6	192
HLD	68	0	7	192
HLD	69	0	0	192
HLD	69	0	1	192
TAP	70	0	1
TAP	70	96	0
TAP	70	192	2
TAP	71	0	6
TAP	71	96	7
TAP	71	192	5
TAP	72	0	5
TAP	72	96	5
TAP	72	192	4
TAP	72	288	4
TAP	73	0	3
TAP	73	96	3
TAP	73	192	3
TAP	73	192	4
TAP	74	0	2
TAP	74	96	3
TAP	74	192	1
TAP	75	0	5
TAP	75	96	4
TAP	75	192	6
TAP	76	0	3
TAP	76	0	5
TAP	76	192	2
TAP	76	192	4
TAP	77	0	3
TAP	77	0	4
TAP	77	96	3
TAP	77	96	4
TAP	77	192	3
TAP	77	192	4
TAP	78	0	3
TAP	78	96	4
BRK	78	192	2
BRK	78	192	5
TAP	79	0	1
TAP	79	192	0
TAP	79	192	2
TAP	80	0	6
TAP	80	192	5
TAP	80	192	7
STR	81	0	0
SI_	81	0	0	96	288	3
TAP	83	0	4
TAP	83	96	3
TAP	83	192	5
TAP	84	0	3
TAP	84	96	4
TAP	84	192	2
TAP	85	0	5
TAP	85	96	5
TAP	85	192	6
TAP	86	0	7
TAP	86	96	0
TAP	86	192	7
TAP	86	288	1
TAP	86	288	6

T_REC_TAP	195
T_REC_BRK	7
T_REC_XTP	0
T_REC_HLD	24
T_REC_XHO	0
T_REC_STR	3
T_REC_BST	0
T_REC_XST	0
T_REC_TTP	0
T_REC_THO	0
T_REC_SLD	3
T_REC_ALL	232
T_NUM_TAP	198
T_NUM_BRK	7
T_NUM_HLD	24
T_NUM_SLD	3
T_NUM_ALL	232
T_JUDGE_TAP	205
T_JUDGE_HLD	96
T_JUDGE_SLD	3
T_JUDGE_ALL	304
TTM_EACHPAIRS	42
TTM_SCR_TAP	99000
TTM_SCR_BRK	18200
TTM_SCR_HLD	24000
TTM_SCR_SLD	4500
TTM_SCR_ALL	145700
TTM_SCR_S	140650
TTM_SCR_SS	145000
TTM_RAT_ACV	10048

