VERSION	0.00.00	1.03.00
FES_MODE	0
BPM_DEF	170.000	170.000	170.000	170.000
MET_DEF	4	4
RESOLUTION	384
CLK_DEF	384
COMPATIBLE_CODE	MA2

BPM	0	0	170.000
MET	0	0	4	4

TAP	1	0	0
TAP	1	48	7
TAP	1	96	0
TAP	1	144	7
TAP	1	192	0
TAP	1	240	0
TAP	1	288	7
TAP	1	336	7
TAP	2	0	0
TAP	2	48	7
TAP	2	96	1
TAP	2	144	6
TAP	2	192	0
TAP	2	192	7
TAP	2	288	0
TAP	2	288	7
TAP	3	0	3
TAP	3	48	4
TAP	3	96	3
TAP	3	144	4
TAP	3	192	2
TAP	3	240	3
TAP	3	288	4
TAP	3	336	5
TAP	4	0	1
TAP	4	0	6
TAP	4	96	1
TAP	4	96	5
TAP	4	144	2
TAP	4	144	6
TAP	4	192	3
TAP	4	192	7
TAP	4	240	0
TAP	4	240	4
TAP	5	0	0
TAP	5	0	3
TAP	5	96	1
TAP	5	96	2
TAP	5	192	5
TAP	5	192	6
TAP	5	240	4
TAP	5	240	5
TAP	5	288	3
TAP	5	288	4
TAP	5	336	2
TAP	5	336	3
TAP	6	0	4
TAP	6	0	7
TAP	6	96	5
TAP	6	96	6
TAP	6	144	6
TAP	6	144	7
TAP	6	192	0
TAP	6	192	7
TAP	6	240	0
TAP	6	240	1
TAP	7	0	0
TAP	7	0	4
TAP	7	96	2
TAP	7	96	6
TAP	7	192	3
TAP	7	192	7
TAP	7	240	1
TAP	7	240	5
TAP	7	288	2
TAP	7	288	6
TAP	7	336	0
TAP	7	336	4
STR	8	96	6
SI_	8	96	6	96	48	2
TAP	8	144	6
STR	8	192	1
SI_	8	192	1	96	24	5
BRK	8	288	1
TAP	8	288	6
TAP	9	0	0
TAP	9	48	2
TAP	9	72	3
TAP	9	144	5
TAP	9	168	4
TAP	9	240	0
TAP	9	264	2
TAP	9	336	7
TAP	9	360	5
TAP	10	48	3
TAP	10	72	6
TAP	10	144	4
TAP	10	168	1
TAP	10	240	0
TAP	10	264	6
TAP	10	336	5
TAP	10	360	3
TAP	11	48	1
TAP	11	72	5
TAP	11	144	7
TAP	11	168	4
TAP	11	240	0
TAP	11	264	3
TAP	11	336	4
TAP	11	360	3
TAP	12	48	0
TAP	12	48	7
TAP	12	72	0
TAP	12	72	7
TAP	12	144	2
TAP	12	144	5
STR	12	192	6
SI_	12	192	6	96	48	2
STR	12	288	3
SI_	12	288	3	96	48	0
STR	13	0	0
SI_	13	0	0	96	48	3
STR	13	96	3
SI_	13	96	3	96	48	0
STR	13	192	0
SI_	13	192	0	96	48	3
STR	13	288	6
SI_	13	288	6	96	48	2
STR	14	0	2
SI_	14	0	2	96	48	6
STR	14	96	6
SI_	14	96	6	96	48	2
STR	14	192	2
SI_	14	192	2	96	48	6
STR	14	288	0
SI_	14	288	0	96	48	4
STR	15	0	4
SI_	15	0	4	96	48	0
STR	15	96	0
SI_	15	96	0	96	48	4
STR	15	192	4
SI_	15	192	4	96	48	0
STR	16	0	2
SI_	16	0	2	96	48	5
STR	16	0	7
SI_	16	0	7	96	48	4
STR	16	192	0
SI_	16	192	0	96	48	4
STR	16	192	1
SI_	16	192	1	96	48	4
TAP	17	0	0
TAP	17	48	1
HLD	17	72	2	192
TAP	17	120	1
TAP	17	168	0
TAP	17	216	7
TAP	17	264	6
TAP	17	312	7
TAP	17	336	0
TAP	18	0	7
TAP	18	48	6
HLD	18	72	5	192
TAP	18	120	6
TAP	18	168	7
TAP	18	216	0
TAP	18	264	1
TAP	18	312	0
TAP	18	336	2
TAP	19	0	1
TAP	19	0	4
TAP	19	48	2
TAP	19	72	3
TAP	19	120	2
TAP	19	120	6
TAP	19	168	1
TAP	19	168	5
TAP	19	216	0
TAP	19	216	4
TAP	19	264	3
TAP	19	264	7
TAP	19	312	1
TAP	19	336	5
TAP	20	0	0
TAP	20	0	7
TAP	20	48	2
TAP	20	48	5
TAP	20	72	3
TAP	20	72	4
TAP	20	120	6
TAP	20	168	1
STR	20	192	6
SI_	20	192	6	96	48	2
BRK	20	288	6
TAP	21	0	2
TAP	21	48	7
HLD	21	72	0	144
TAP	21	120	5
TAP	21	168	2
TAP	21	216	7
TAP	21	264	0
TAP	21	312	6
TAP	21	336	1
TAP	22	0	5
TAP	22	48	0
HLD	22	72	7	144
TAP	22	120	2
TAP	22	168	5
TAP	22	216	0
TAP	22	264	7
TAP	22	312	1
TAP	22	336	6
TAP	23	0	3
TAP	23	48	7
HLD	23	72	0	144
TAP	23	120	5
TAP	23	168	4
TAP	23	216	3
TAP	23	264	2
TAP	23	312	4
TAP	23	336	3
STR	24	0	1
SCL	24	0	1	96	144	6
STR	24	0	5
SUR	24	0	5	96	144	2
TAP	25	0	0
TAP	25	0	2
TAP	25	48	2
TAP	25	96	3
TAP	25	96	5
TAP	25	144	3
TAP	25	192	0
TAP	25	192	2
TAP	25	240	2
TAP	25	288	3
TAP	25	288	5
TAP	25	336	3
TAP	26	0	0
TAP	26	0	2
TAP	26	48	2
TAP	26	96	3
TAP	26	96	5
TAP	26	144	3
TAP	26	192	3
HLD	26	192	5	96
TAP	26	240	3
TAP	26	288	2
TAP	26	336	2
TAP	27	0	5
TAP	27	0	7
TAP	27	48	5
TAP	27	96	2
TAP	27	96	4
TAP	27	144	4
TAP	27	192	5
TAP	27	192	7
TAP	27	240	5
TAP	27	288	2
TAP	27	288	4
TAP	27	336	4
TAP	28	0	5
TAP	28	0	7
TAP	28	48	5
TAP	28	96	5
TAP	28	96	7
TAP	28	144	5
TAP	28	192	2
TAP	28	192	4
TAP	28	288	2
TAP	28	288	4
TAP	29	0	0
TAP	29	0	1
TAP	29	48	1
TAP	29	96	1
TAP	29	96	2
TAP	29	144	1
TAP	29	192	1
TAP	29	192	7
TAP	29	240	1
TAP	29	288	1
TAP	29	288	3
TAP	29	336	1
TAP	30	0	6
TAP	30	0	7
TAP	30	48	6
TAP	30	96	5
TAP	30	96	6
TAP	30	144	6
HLD	30	192	0	96
TAP	30	192	6
TAP	30	240	7
TAP	30	288	1
TAP	30	336	6
TAP	31	0	0
TAP	31	0	2
TAP	31	48	2
TAP	31	96	2
TAP	31	96	4
TAP	31	144	2
TAP	31	192	5
TAP	31	192	7
TAP	31	240	5
TAP	31	288	3
TAP	31	288	5
TAP	31	336	5
TAP	32	0	1
TAP	32	0	6
TAP	32	96	5
TAP	32	96	7
TAP	32	144	2
TAP	32	144	3
TAP	32	192	4
TAP	32	192	5
TAP	32	240	0
TAP	32	240	2
TAP	32	288	0
TAP	32	288	7
TAP	32	336	3
TAP	32	336	4
STR	33	0	7
SI_	33	0	7	96	48	3
TAP	33	48	1
STR	33	96	3
SI_	33	96	3	96	48	7
TAP	33	144	2
STR	33	192	7
SI_	33	192	7	96	48	3
TAP	33	240	1
STR	33	288	3
SI_	33	288	3	96	48	7
TAP	33	336	0
STR	34	0	7
SI_	34	0	7	96	48	3
TAP	34	48	1
TAP	34	96	3
STR	34	192	1
SV_	34	192	1	96	48	2
STR	34	192	3
SUR	34	192	3	96	48	0
STR	35	0	0
SI_	35	0	0	96	48	4
TAP	35	48	6
STR	35	96	4
SI_	35	96	4	96	48	0
TAP	35	144	5
STR	35	192	0
SI_	35	192	0	96	48	4
TAP	35	240	6
STR	35	288	4
SI_	35	288	4	96	48	0
TAP	35	336	7
STR	36	0	0
SI_	36	0	0	96	48	4
TAP	36	48	6
TAP	36	96	4
STR	36	192	4
SUL	36	192	4	96	48	7
STR	36	192	6
SV_	36	192	6	96	48	5
TAP	37	0	0
TAP	37	0	4
TAP	37	48	0
TAP	37	96	1
TAP	37	96	5
TAP	37	144	5
TAP	37	192	2
TAP	37	192	6
TAP	37	240	2
TAP	37	288	3
TAP	37	288	7
TAP	37	336	7
TAP	38	0	3
TAP	38	0	7
TAP	38	48	2
TAP	38	48	6
TAP	38	96	1
TAP	38	96	5
TAP	38	144	0
TAP	38	144	4
TAP	38	192	2
TAP	38	192	3
TAP	38	240	6
TAP	38	240	7
TAP	38	288	4
TAP	38	288	5
TAP	38	336	0
TAP	38	336	1
TAP	39	0	7
TAP	39	24	3
TAP	39	48	7
TAP	39	72	3
TAP	39	96	4
TAP	39	120	0
TAP	39	144	4
TAP	39	168	0
TAP	39	192	5
TAP	39	216	1
TAP	39	240	5
TAP	39	264	1
TAP	39	288	2
TAP	39	288	6
TAP	39	312	1
TAP	39	312	5
TAP	39	336	0
TAP	39	336	4
TAP	39	360	3
TAP	39	360	7
TAP	40	96	6
TAP	40	144	1
TAP	40	192	0
TAP	40	192	7
STR	40	288	5
SV_	40	288	5	96	48	0
BRK	40	288	6
STR	41	0	6
SV_	41	0	6	96	48	3
TAP	41	192	6
TAP	41	240	7
STR	41	288	0
SUL	41	288	0	96	48	3
TAP	41	336	1
STR	42	0	2
SI_	42	0	2	96	48	6
TAP	42	192	7
TAP	42	240	0
STR	42	288	6
SV_	42	288	6	96	48	3
TAP	42	336	0
STR	43	0	1
SI_	43	0	1	96	48	6
STR	43	192	4
SI_	43	192	4	96	48	7
STR	43	240	7
SI_	43	240	7	96	48	2
STR	43	288	2
SI_	43	288	2	96	48	7
TAP	43	336	1
TAP	44	0	1
TAP	44	144	6
TAP	44	192	0
STR	44	240	7
SUL	44	240	7	96	48	2
STR	44	288	1
SUL	44	288	1	96	48	4
TAP	45	192	1
TAP	45	240	0
STR	45	288	7
SI_	45	288	7	96	48	3
TAP	45	336	6
STR	46	0	5
SI_	46	0	5	96	48	1
TAP	46	192	0
TAP	46	240	7
STR	46	288	1
SV_	46	288	1	96	48	4
TAP	46	336	7
STR	47	0	6
SI_	47	0	6	96	48	1
STR	47	192	3
SI_	47	192	3	96	48	0
STR	47	240	0
SI_	47	240	0	96	48	5
STR	47	288	5
SI_	47	288	5	96	48	0
TAP	47	336	6
TAP	48	0	6
TAP	48	144	0
TAP	48	144	1
TAP	48	192	2
TAP	48	192	7
TAP	48	240	3
TAP	48	240	6
TAP	48	288	6
TAP	48	288	7
TAP	48	336	0
TAP	48	336	5
STR	49	0	1
SCL	49	0	1	96	48	6
STR	49	0	4
SUR	49	0	4	96	48	1
TAP	49	192	1
TAP	49	192	7
TAP	49	240	1
TAP	49	288	1
TAP	49	288	3
TAP	49	336	1
STR	50	0	1
SV_	50	0	1	96	48	7
STR	50	0	7
SCL	50	0	7	96	48	3
TAP	50	192	5
TAP	50	192	7
TAP	50	240	7
TAP	50	288	1
TAP	50	288	7
TAP	50	336	7
STR	51	0	5
SCL	51	0	5	96	48	1
STR	51	0	7
SV_	51	0	7	96	48	5
TAP	51	192	3
TAP	51	192	5
TAP	51	240	5
TAP	51	288	5
TAP	51	288	7
TAP	51	336	5
TAP	52	0	3
TAP	52	0	5
TAP	52	96	3
TAP	52	144	0
TAP	52	144	1
TAP	52	192	0
TAP	52	192	7
TAP	52	240	6
TAP	52	240	7
TAP	52	288	2
TAP	52	288	3
TAP	52	336	3
TAP	52	336	4
TAP	53	0	4
TAP	53	0	5
TAP	53	48	6
TAP	53	96	4
TAP	53	96	5
TAP	53	144	3
TAP	53	192	4
TAP	53	192	5
TAP	53	240	7
TAP	53	288	4
TAP	53	288	5
TAP	53	336	2
TAP	54	0	1
TAP	54	0	3
TAP	54	48	2
TAP	54	96	1
TAP	54	96	3
TAP	54	144	2
TAP	54	192	5
TAP	54	192	7
TAP	54	240	6
TAP	54	288	5
TAP	54	288	7
TAP	54	336	6
TAP	55	0	0
TAP	55	24	4
TAP	55	48	0
TAP	55	72	4
TAP	55	96	6
TAP	55	120	4
TAP	55	144	6
TAP	55	168	4
TAP	55	192	2
TAP	55	216	4
TAP	55	240	2
TAP	55	264	4
TAP	55	288	0
TAP	55	312	4
TAP	55	336	2
TAP	55	360	6
BRK	56	0	0
BRK	56	96	7
TAP	56	144	6
STR	56	192	7
SCL	56	192	7	96	48	4
TAP	56	240	0
TAP	56	288	1
TAP	56	336	2
STR	57	0	4
SI_	57	0	4	96	48	1
TAP	57	0	7
TAP	57	96	4
STR	57	96	7
SI_	57	96	7	96	48	4
STR	57	192	1
SI_	57	192	1	96	48	6
TAP	57	192	7
TAP	57	288	1
STR	57	288	4
SV_	57	288	4	96	48	3
TAP	58	0	4
STR	58	0	6
SCR	58	0	6	96	48	1
TAP	58	96	6
STR	58	192	0
SI_	58	192	0	96	48	4
STR	58	192	1
SI_	58	192	1	96	48	4
TAP	59	0	0
STR	59	0	3
SI_	59	0	3	96	48	6
STR	59	96	0
SI_	59	96	0	96	48	3
TAP	59	96	3
TAP	59	192	0
STR	59	192	6
SI_	59	192	6	96	48	1
STR	59	288	3
SV_	59	288	3	96	48	4
TAP	59	288	6
STR	60	0	1
SCL	60	0	1	96	48	6
TAP	60	0	3
TAP	60	96	1
STR	60	192	0
SI_	60	192	0	96	48	4
STR	60	192	1
SI_	60	192	1	96	48	4
STR	61	0	1
SI_	61	0	1	96	48	5
TAP	61	0	7
TAP	61	96	1
STR	61	96	7
SI_	61	96	7	96	48	3
STR	61	192	5
SI_	61	192	5	96	48	1
TAP	61	192	7
STR	61	288	3
SI_	61	288	3	96	48	7
TAP	61	288	5
TAP	62	0	3
STR	62	96	0
SUR	62	96	0	96	48	5
STR	62	96	6
SUR	62	96	6	96	48	3
STR	63	0	1
SI_	63	0	1	96	48	5
TAP	63	0	7
TAP	63	96	1
STR	63	96	7
SI_	63	96	7	96	48	3
STR	63	192	5
SI_	63	192	5	96	48	2
TAP	63	192	7
STR	63	288	3
SUL	63	288	3	96	48	4
TAP	64	96	0
TAP	64	96	2
TAP	64	144	4
TAP	64	144	5
TAP	64	192	2
TAP	64	192	3
TAP	64	240	5
TAP	64	240	7
TAP	64	288	3
TAP	64	288	4
TAP	64	336	0
TAP	64	336	7
HLD	65	0	6	144
TAP	65	72	5
TAP	65	144	7
STR	65	192	1
SUR	65	192	1	96	96	4
TAP	65	216	0
TAP	65	288	6
TAP	66	0	3
TAP	66	72	7
STR	66	144	0
SI_	66	144	0	96	48	3
STR	66	144	4
SI_	66	144	4	96	48	7
STR	66	192	3
SI_	66	192	3	96	48	0
STR	66	192	7
SI_	66	192	7	96	48	4
TAP	67	0	3
TAP	67	0	7
TAP	67	72	2
TAP	67	72	6
STR	67	144	1
SI_	67	144	1	96	48	6
STR	67	144	5
SI_	67	144	5	96	48	2
STR	67	192	2
SI_	67	192	2	96	48	5
STR	67	192	6
SI_	67	192	6	96	48	1
TAP	68	0	1
TAP	68	48	1
TAP	68	72	2
TAP	68	120	2
TAP	68	144	3
TAP	68	192	3
TAP	68	216	4
TAP	68	264	4
TAP	68	288	5
TAP	68	336	6
HLD	69	0	1	144
TAP	69	72	2
TAP	69	144	0
STR	69	192	6
SUL	69	192	6	96	96	3
TAP	69	216	7
TAP	69	288	1
TAP	70	0	4
TAP	70	72	0
STR	70	144	1
SV_	70	144	1	96	48	4
STR	70	144	6
SV_	70	144	6	96	48	3
STR	70	192	3
SCR	70	192	3	96	48	7
STR	70	192	4
SCL	70	192	4	96	48	0
TAP	71	0	3
TAP	71	0	7
TAP	71	48	0
TAP	71	72	4
TAP	71	120	2
TAP	71	144	6
TAP	71	192	0
TAP	71	192	4
TAP	71	240	7
TAP	71	264	3
TAP	71	312	5
TAP	71	336	1
TAP	72	0	6
TAP	72	0	7
TAP	72	48	2
TAP	72	48	3
TAP	72	96	1
TAP	72	96	5
TAP	72	128	2
TAP	72	128	6
TAP	72	160	3
TAP	72	160	7
TAP	72	192	0
TAP	72	192	1
TAP	72	240	4
TAP	72	240	5
TAP	72	288	0
TAP	72	288	1
TAP	73	0	0
STR	73	48	4
SUR	73	48	4	96	48	1
TAP	73	72	3
TAP	73	192	3
STR	73	240	7
SUL	73	240	7	96	48	2
TAP	73	264	0
TAP	74	0	1
TAP	74	48	6
TAP	74	72	5
TAP	74	144	0
STR	74	192	4
SCR	74	192	4	96	48	1
STR	74	240	3
SUL	74	240	3	96	48	4
TAP	75	0	7
STR	75	48	3
SUL	75	48	3	96	48	6
TAP	75	72	4
TAP	75	192	4
STR	75	240	0
SUR	75	240	0	96	48	5
TAP	75	264	7
TAP	76	0	7
TAP	76	48	2
TAP	76	72	3
TAP	76	144	0
TAP	76	144	5
TAP	76	192	0
TAP	76	216	7
TAP	76	240	0
TAP	76	264	7
TAP	76	288	1
TAP	76	288	6
TAP	76	336	0
TAP	76	336	7
TAP	77	0	3
TAP	77	0	4
TAP	77	48	2
TAP	77	72	3
TAP	77	144	0
TAP	77	144	5
TAP	77	192	3
TAP	77	192	4
TAP	77	240	5
TAP	77	264	4
TAP	77	336	2
TAP	77	336	7
TAP	78	0	0
TAP	78	0	1
TAP	78	48	3
TAP	78	48	6
TAP	78	72	4
TAP	78	72	5
TAP	78	144	0
TAP	78	144	4
TAP	78	192	1
TAP	78	192	5
TAP	78	240	0
TAP	78	240	4
TAP	78	288	3
TAP	78	288	7
TAP	78	336	1
TAP	78	336	6
TAP	79	0	3
TAP	79	0	7
TAP	79	48	1
TAP	79	72	5
TAP	79	144	0
TAP	79	144	4
TAP	79	192	2
TAP	79	192	7
TAP	79	240	4
TAP	79	264	0
TAP	79	336	1
TAP	79	336	5
TAP	80	0	2
TAP	80	0	5
TAP	80	48	3
TAP	80	72	4
TAP	80	144	0
TAP	80	144	7
STR	80	192	6
SI_	80	192	6	96	48	2
STR	80	192	7
SI_	80	192	7	96	48	2
TAP	80	240	0
TAP	80	240	5
HLD	81	0	0	72
STR	81	48	2
SUL	81	48	2	96	48	5
TAP	81	72	2
HLD	81	192	7	72
STR	81	240	5
SUR	81	240	5	96	48	2
TAP	81	264	5
HLD	82	0	3	72
STR	82	48	1
SCL	82	48	1	96	48	6
TAP	82	72	1
STR	82	192	3
SI_	82	192	3	96	48	0
STR	82	240	6
SV_	82	240	6	96	48	4
TAP	83	0	0
STR	83	48	6
SI_	83	48	6	96	48	2
TAP	83	72	4
TAP	83	144	0
TAP	83	192	1
STR	83	240	7
SI_	83	240	7	96	48	3
TAP	83	264	5
TAP	83	336	1
TAP	84	0	0
TAP	84	48	7
TAP	84	72	0
TAP	84	144	1
TAP	84	144	6
TAP	84	192	3
TAP	84	216	4
TAP	84	240	3
TAP	84	264	4
TAP	84	288	2
TAP	84	288	5
TAP	84	336	3
TAP	84	336	4
TAP	85	0	0
TAP	85	0	7
TAP	85	48	6
TAP	85	72	7
TAP	85	144	1
TAP	85	144	4
TAP	85	192	0
TAP	85	192	7
TAP	85	240	1
TAP	85	264	0
TAP	85	336	3
TAP	85	336	6
TAP	86	0	4
TAP	86	0	5
TAP	86	48	2
TAP	86	48	7
TAP	86	72	0
TAP	86	72	1
TAP	86	144	3
TAP	86	144	7
TAP	86	192	2
TAP	86	192	6
TAP	86	240	3
TAP	86	240	7
TAP	86	288	0
TAP	86	288	4
TAP	86	336	1
TAP	86	336	5
TAP	87	0	0
TAP	87	24	4
TAP	87	48	2
TAP	87	72	6
TAP	87	96	1
TAP	87	120	5
TAP	87	144	3
TAP	87	168	7
TAP	87	192	0
TAP	87	216	4
TAP	87	240	2
TAP	87	264	6
TAP	87	288	1
TAP	87	288	5
TAP	87	312	2
TAP	87	312	6
TAP	87	336	3
TAP	87	336	7
TAP	87	360	0
TAP	87	360	4
BRK	88	0	1
BRK	88	0	5
STR	88	192	1
SI_	88	192	1	96	48	5
BRK	88	288	1
STR	88	288	6
SI_	88	288	6	96	24	2
BRK	89	0	6

T_REC_TAP	651
T_REC_BRK	9
T_REC_XTP	0
T_REC_HLD	12
T_REC_XHO	0
T_REC_STR	116
T_REC_BST	0
T_REC_XST	0
T_REC_TTP	0
T_REC_THO	0
T_REC_SLD	116
T_REC_ALL	904
T_NUM_TAP	767
T_NUM_BRK	9
T_NUM_HLD	12
T_NUM_SLD	116
T_NUM_ALL	904
T_JUDGE_TAP	776
T_JUDGE_HLD	33
T_JUDGE_SLD	116
T_JUDGE_ALL	925
TTM_EACHPAIRS	208
TTM_SCR_TAP	383500
TTM_SCR_BRK	23400
TTM_SCR_HLD	12000
TTM_SCR_SLD	174000
TTM_SCR_ALL	592900
TTM_SCR_S	574250
TTM_SCR_SS	592000
TTM_RAT_ACV	10015

