VERSION	0.00.00	1.03.00
FES_MODE	0
BPM_DEF	170.000	170.000	170.000	170.000
MET_DEF	4	4
RESOLUTION	384
CLK_DEF	384
COMPATIBLE_CODE	MA2

BPM	0	0	170.000
MET	0	0	4	4

TAP	1	0	2
HLD	1	0	4	576
TAP	1	96	2
TAP	1	192	7
TAP	1	288	7
TAP	2	0	2
TAP	2	96	7
TAP	2	192	7
HLD	3	0	3	576
TAP	3	0	5
TAP	3	96	5
TAP	3	192	0
TAP	3	288	0
TAP	4	0	5
TAP	4	96	0
TAP	4	192	0
TAP	5	0	3
HLD	5	0	4	576
TAP	5	96	3
TAP	5	192	6
TAP	5	288	6
TAP	6	0	3
TAP	6	96	6
TAP	6	192	6
HLD	7	0	3	384
TAP	7	0	4
TAP	7	96	4
TAP	7	192	1
TAP	7	288	1
TAP	8	0	4
STR	8	96	0
SI_	8	96	0	96	48	4
STR	8	192	7
SI_	8	192	7	96	48	3
BRK	8	288	0
TAP	9	0	1
TAP	9	0	5
TAP	9	72	2
TAP	9	72	4
TAP	9	144	3
TAP	9	192	2
TAP	9	192	6
TAP	9	264	3
TAP	9	264	5
TAP	9	336	4
TAP	10	0	1
TAP	10	0	5
TAP	10	72	2
TAP	10	72	4
TAP	10	144	3
TAP	10	192	2
TAP	10	192	6
TAP	10	264	3
TAP	10	264	5
TAP	10	336	4
TAP	11	0	0
TAP	11	0	6
TAP	11	72	2
TAP	11	72	4
TAP	11	144	3
TAP	11	192	1
TAP	11	192	7
TAP	11	264	3
TAP	11	264	5
TAP	11	336	4
TAP	12	0	0
TAP	12	0	6
TAP	12	72	1
TAP	12	144	6
STR	12	192	3
SI_	12	192	3	96	48	6
STR	12	192	4
SI_	12	192	4	96	48	1
TAP	13	0	1
TAP	13	0	5
TAP	13	72	2
TAP	13	72	4
TAP	13	144	3
TAP	13	192	2
TAP	13	192	6
TAP	13	264	3
TAP	13	264	5
TAP	13	336	4
TAP	14	0	1
TAP	14	0	5
TAP	14	72	2
TAP	14	72	4
TAP	14	144	3
TAP	14	192	2
TAP	14	192	6
TAP	14	264	3
TAP	14	264	5
TAP	14	336	4
TAP	15	0	0
TAP	15	0	6
TAP	15	72	1
TAP	15	72	5
TAP	15	144	3
TAP	15	192	1
TAP	15	192	7
TAP	15	264	2
TAP	15	264	6
TAP	15	336	4
TAP	16	0	2
TAP	16	0	3
TAP	16	72	1
TAP	16	72	4
TAP	16	144	6
TAP	16	144	7
TAP	16	192	4
TAP	16	192	5
TAP	16	264	3
TAP	16	264	6
TAP	16	336	0
TAP	16	336	1
STR	17	0	7
SUR	17	0	7	96	96	4
STR	17	192	1
SUL	17	192	1	96	96	4
STR	18	0	6
SUR	18	0	6	96	96	4
STR	18	192	2
SUL	18	192	2	96	96	4
STR	19	0	5
SUR	19	0	5	96	96	4
STR	19	192	3
SUL	19	192	3	96	96	4
STR	20	0	0
SI_	20	0	0	96	48	4
STR	20	192	3
SI_	20	192	3	96	48	7
STR	20	192	5
SI_	20	192	5	96	48	1
STR	21	0	0
SUL	21	0	0	96	96	3
STR	21	192	6
SUR	21	192	6	96	96	3
STR	22	0	1
SUL	22	0	1	96	96	3
STR	22	192	5
SUR	22	192	5	96	96	3
STR	23	0	2
SUL	23	0	2	96	96	3
STR	23	192	4
SUR	23	192	4	96	96	3
STR	24	0	7
SUR	24	0	7	96	192	0
BRK	24	288	7
TAP	25	0	6
TAP	25	48	6
TAP	25	96	5
TAP	25	144	5
TAP	25	192	4
TAP	25	240	4
TAP	25	288	3
TAP	25	336	3
TAP	26	0	2
TAP	26	48	1
STR	26	96	0
SI_	26	96	0	96	48	3
TAP	26	144	7
STR	26	192	6
SI_	26	192	6	96	48	2
TAP	27	0	1
TAP	27	48	1
TAP	27	96	2
TAP	27	144	2
TAP	27	192	3
TAP	27	240	3
TAP	27	288	4
TAP	27	336	4
TAP	28	0	5
TAP	28	48	6
STR	28	96	7
SI_	28	96	7	96	48	4
TAP	28	144	0
STR	28	192	1
SI_	28	192	1	96	48	5
TAP	29	0	4
TAP	29	48	4
TAP	29	96	3
TAP	29	144	3
TAP	29	192	5
TAP	29	240	5
TAP	29	288	2
TAP	29	336	2
TAP	30	0	6
TAP	30	48	1
STR	30	96	0
SI_	30	96	0	96	48	5
STR	30	96	7
SI_	30	96	7	96	48	2
TAP	30	288	3
TAP	30	288	4
TAP	31	0	6
TAP	31	48	5
TAP	31	96	4
TAP	31	144	3
TAP	31	192	1
TAP	31	240	2
TAP	31	288	3
TAP	31	336	4
TAP	32	0	5
TAP	32	96	3
TAP	32	96	6
TAP	32	144	3
TAP	32	144	6
TAP	32	192	1
TAP	32	192	4
TAP	32	240	1
TAP	32	240	4
TAP	32	288	0
TAP	32	288	7
TAP	32	336	0
TAP	32	336	7
TAP	33	0	1
TAP	33	48	3
TAP	33	96	1
TAP	33	144	3
TAP	33	192	0
TAP	33	240	3
TAP	33	288	0
TAP	33	336	3
TAP	34	0	7
TAP	34	48	3
TAP	34	96	7
TAP	34	144	3
STR	34	192	2
SCR	34	192	2	96	48	5
STR	34	192	6
SCR	34	192	6	96	48	1
TAP	35	0	6
TAP	35	48	4
TAP	35	96	6
TAP	35	144	4
TAP	35	192	7
TAP	35	240	4
TAP	35	288	7
TAP	35	336	4
TAP	36	0	0
TAP	36	48	4
TAP	36	96	0
TAP	36	144	4
STR	36	192	1
SCL	36	192	1	96	48	6
STR	36	192	5
SCL	36	192	5	96	48	2
HLD	37	0	5	144
TAP	37	72	4
TAP	37	144	6
STR	37	192	7
SI_	37	192	7	96	48	3
TAP	37	288	0
HLD	38	0	2	144
TAP	38	72	3
TAP	38	144	1
STR	38	192	0
SI_	38	192	0	96	48	4
TAP	38	288	7
TAP	39	0	3
TAP	39	0	5
TAP	39	48	3
TAP	39	48	5
TAP	39	96	1
TAP	39	96	4
TAP	39	144	1
TAP	39	144	4
TAP	39	192	2
TAP	39	192	6
TAP	39	240	2
TAP	39	240	6
TAP	39	288	0
TAP	39	288	7
TAP	39	336	0
TAP	39	336	7
STR	40	96	7
SI_	40	96	7	96	48	3
STR	40	192	0
SI_	40	192	0	96	48	4
BRK	40	288	7
HLD	41	0	3	384
TAP	41	192	2
TAP	41	240	1
TAP	41	288	0
TAP	41	336	7
HLD	42	0	6	384
TAP	42	192	5
TAP	42	240	4
TAP	42	288	3
TAP	42	336	2
HLD	43	0	1	384
TAP	43	192	2
TAP	43	240	3
TAP	43	288	4
TAP	43	336	5
HLD	44	0	6	384
TAP	44	144	7
TAP	44	192	0
TAP	44	240	1
TAP	44	288	2
TAP	44	336	3
HLD	45	0	4	384
TAP	45	192	3
TAP	45	240	2
TAP	45	288	1
TAP	45	336	0
HLD	46	0	7	384
TAP	46	192	6
TAP	46	240	5
TAP	46	288	4
TAP	46	336	3
HLD	47	0	2	384
TAP	47	192	1
TAP	47	240	0
TAP	47	288	7
TAP	47	336	6
HLD	48	0	5	384
TAP	48	144	6
TAP	48	192	7
TAP	48	240	0
TAP	48	288	1
TAP	48	336	2
TAP	49	0	3
TAP	49	96	3
TAP	49	192	3
TAP	49	240	5
TAP	49	288	3
TAP	49	336	6
TAP	50	0	4
TAP	50	0	7
TAP	50	96	4
TAP	50	192	4
TAP	50	240	2
TAP	50	288	4
TAP	50	336	1
TAP	51	0	0
TAP	51	0	3
TAP	51	96	3
TAP	51	192	3
TAP	51	240	5
TAP	51	288	3
TAP	51	336	6
TAP	52	0	0
TAP	52	0	7
TAP	52	96	4
TAP	52	144	3
TAP	52	192	4
TAP	52	240	2
TAP	52	288	4
TAP	52	336	1
TAP	53	0	0
TAP	53	0	7
TAP	53	48	1
TAP	53	96	0
TAP	53	96	7
TAP	53	144	6
TAP	53	192	0
TAP	53	192	7
TAP	53	240	1
TAP	53	288	0
TAP	53	288	7
TAP	53	336	6
TAP	54	0	3
TAP	54	0	4
TAP	54	48	2
TAP	54	96	3
TAP	54	96	4
TAP	54	144	5
TAP	54	192	3
TAP	54	192	4
TAP	54	240	2
TAP	54	288	3
TAP	54	288	4
TAP	54	336	5
TAP	55	0	4
TAP	55	0	6
TAP	55	48	4
TAP	55	48	6
TAP	55	96	3
TAP	55	96	5
TAP	55	144	3
TAP	55	144	5
TAP	55	192	2
TAP	55	192	4
TAP	55	240	2
TAP	55	240	4
TAP	55	288	1
TAP	55	288	3
TAP	55	336	1
TAP	55	336	3
BRK	56	0	0
BRK	56	0	7
STR	57	0	1
SI_	57	0	1	96	48	4
TAP	57	96	0
STR	57	192	6
SI_	57	192	6	96	48	3
TAP	57	288	7
STR	58	0	2
SI_	58	0	2	96	48	5
STR	58	96	6
SI_	58	96	6	96	48	1
TAP	58	192	0
STR	59	0	6
SI_	59	0	6	96	48	3
TAP	59	96	7
STR	59	192	1
SI_	59	192	1	96	48	4
TAP	59	288	0
STR	60	0	5
SI_	60	0	5	96	48	2
STR	60	96	1
SI_	60	96	1	96	48	6
STR	60	192	7
SI_	60	192	7	96	48	3
STR	61	0	0
SI_	61	0	0	96	48	4
TAP	61	96	1
STR	61	192	7
SI_	61	192	7	96	48	3
TAP	61	288	6
STR	62	0	2
SI_	62	0	2	96	48	5
STR	62	96	6
SI_	62	96	6	96	48	1
TAP	62	192	0
STR	63	0	7
SI_	63	0	7	96	48	3
TAP	63	96	6
STR	63	192	0
SI_	63	192	0	96	48	4
TAP	63	288	1
TAP	64	0	2
TAP	64	0	5
TAP	64	96	1
TAP	64	96	4
TAP	64	144	1
TAP	64	144	4
TAP	64	192	3
TAP	64	192	6
TAP	64	240	3
TAP	64	240	6
TAP	64	288	0
TAP	64	288	7
TAP	64	336	0
TAP	64	336	7
HLD	65	0	1	72
HLD	65	72	3	72
TAP	65	144	4
TAP	65	192	5
TAP	65	240	4
TAP	65	288	3
TAP	65	288	6
HLD	66	0	6	72
HLD	66	72	4	72
TAP	66	144	3
TAP	66	192	2
TAP	66	192	5
TAP	66	288	0
TAP	66	288	7
HLD	67	0	6	72
HLD	67	72	4	72
TAP	67	144	3
TAP	67	192	2
TAP	67	240	3
TAP	67	288	2
TAP	67	336	3
HLD	68	0	1	72
HLD	68	72	3	72
TAP	68	144	4
TAP	68	192	2
TAP	68	192	5
TAP	68	264	1
TAP	68	264	6
TAP	68	336	0
TAP	68	336	7
HLD	69	0	6	72
HLD	69	72	7	72
TAP	69	144	0
TAP	69	192	1
TAP	69	240	0
TAP	69	288	2
TAP	69	288	7
HLD	70	0	1	72
HLD	70	72	0	72
TAP	70	144	7
TAP	70	192	0
TAP	70	192	6
TAP	70	288	1
TAP	70	288	7
TAP	71	0	5
TAP	71	0	6
TAP	71	96	1
TAP	71	96	2
TAP	71	192	3
TAP	71	192	4
TAP	71	264	0
TAP	71	264	5
TAP	71	336	2
TAP	71	336	7
TAP	72	0	1
TAP	72	48	6
TAP	72	96	0
TAP	72	128	0
TAP	72	160	0
TAP	72	192	7
TAP	72	240	3
BRK	72	288	1
BRK	72	288	5
TAP	73	0	0
TAP	73	72	1
TAP	73	72	7
TAP	73	144	2
TAP	73	144	6
TAP	73	192	7
TAP	73	264	0
TAP	73	264	6
TAP	73	336	1
TAP	73	336	5
TAP	74	0	4
TAP	74	72	3
TAP	74	72	5
TAP	74	144	2
TAP	74	144	6
STR	74	192	3
SI_	74	192	3	96	48	7
STR	74	240	4
SI_	74	240	4	96	48	0
TAP	75	0	1
TAP	75	72	0
TAP	75	72	2
TAP	75	144	3
TAP	75	144	7
TAP	75	192	6
TAP	75	264	5
TAP	75	264	7
TAP	75	336	0
TAP	75	336	4
TAP	76	0	3
TAP	76	72	2
TAP	76	72	4
TAP	76	144	1
TAP	76	144	5
STR	76	192	6
SI_	76	192	6	96	48	2
STR	76	240	7
SI_	76	240	7	96	48	3
TAP	77	0	6
TAP	77	72	5
TAP	77	72	7
TAP	77	144	0
TAP	77	144	4
TAP	77	192	1
TAP	77	264	0
TAP	77	264	2
TAP	77	336	3
TAP	77	336	7
TAP	78	0	4
TAP	78	72	3
TAP	78	72	5
TAP	78	144	2
TAP	78	144	6
STR	78	192	1
SI_	78	192	1	96	48	5
STR	78	240	0
SI_	78	240	0	96	48	4
TAP	79	0	7
TAP	79	72	0
TAP	79	72	6
TAP	79	144	1
TAP	79	144	5
TAP	79	192	0
TAP	79	264	1
TAP	79	264	7
TAP	79	336	2
TAP	79	336	6
TAP	80	0	3
TAP	80	72	2
TAP	80	72	4
TAP	80	144	1
TAP	80	144	5
STR	80	192	3
SI_	80	192	3	96	48	7
STR	80	192	4
SI_	80	192	4	96	48	0
TAP	81	0	3
TAP	81	0	6
TAP	81	48	5
TAP	81	72	4
TAP	81	144	0
TAP	81	144	7
TAP	81	192	1
TAP	81	192	4
TAP	81	240	2
TAP	81	264	3
TAP	81	336	0
TAP	81	336	7
TAP	82	0	2
TAP	82	0	5
TAP	82	48	4
TAP	82	72	3
TAP	82	144	0
TAP	82	144	7
TAP	82	192	6
TAP	82	240	7
TAP	82	288	0
TAP	82	336	1
TAP	83	0	2
TAP	83	0	7
TAP	83	48	1
TAP	83	72	0
TAP	83	144	3
TAP	83	144	4
TAP	83	192	0
TAP	83	192	5
TAP	83	240	6
TAP	83	264	7
TAP	83	336	3
TAP	83	336	4
TAP	84	0	1
TAP	84	0	6
TAP	84	48	0
TAP	84	72	7
TAP	84	144	3
TAP	84	144	4
TAP	84	192	5
TAP	84	240	4
TAP	84	288	3
TAP	84	336	2
TAP	85	0	1
TAP	85	0	4
TAP	85	48	2
TAP	85	72	3
TAP	85	144	0
TAP	85	144	7
TAP	85	192	3
TAP	85	192	6
TAP	85	240	5
TAP	85	264	4
TAP	85	336	0
TAP	85	336	7
TAP	86	0	2
TAP	86	0	5
TAP	86	48	3
TAP	86	72	4
TAP	86	144	0
TAP	86	144	7
TAP	86	192	1
TAP	86	240	3
TAP	86	288	4
TAP	86	336	6
TAP	87	0	1
TAP	87	0	7
TAP	87	48	1
TAP	87	48	7
TAP	87	96	2
TAP	87	96	6
TAP	87	144	2
TAP	87	144	6
TAP	87	192	3
TAP	87	192	5
TAP	87	240	3
TAP	87	240	5
TAP	87	288	0
TAP	87	288	4
TAP	87	336	0
TAP	87	336	4
STR	88	0	1
SI_	88	0	1	96	48	4
STR	88	96	6
SI_	88	96	6	96	48	3
STR	88	192	0
SI_	88	192	0	96	48	5
STR	88	288	7
SI_	88	288	7	96	48	2
BRK	89	0	0

T_REC_TAP	520
T_REC_BRK	8
T_REC_XTP	0
T_REC_HLD	26
T_REC_XHO	0
T_REC_STR	61
T_REC_BST	0
T_REC_XST	0
T_REC_TTP	0
T_REC_THO	0
T_REC_SLD	61
T_REC_ALL	676
T_NUM_TAP	581
T_NUM_BRK	8
T_NUM_HLD	26
T_NUM_SLD	61
T_NUM_ALL	676
T_JUDGE_TAP	589
T_JUDGE_HLD	138
T_JUDGE_SLD	61
T_JUDGE_ALL	788
TTM_EACHPAIRS	148
TTM_SCR_TAP	290500
TTM_SCR_BRK	20800
TTM_SCR_HLD	26000
TTM_SCR_SLD	91500
TTM_SCR_ALL	428800
TTM_SCR_S	415200
TTM_SCR_SS	428000
TTM_RAT_ACV	10018

