VERSION	0.00.00	1.03.00
FES_MODE	0
BPM_DEF	170.000	170.000	170.000	170.000
MET_DEF	4	4
RESOLUTION	384
CLK_DEF	384
COMPATIBLE_CODE	MA2

BPM	0	0	170.000
MET	0	0	4	4

TAP	1	0	6
TAP	1	96	6
TAP	1	192	6
TAP	1	288	6
TAP	2	0	6
TAP	2	96	7
TAP	2	192	6
TAP	3	0	1
TAP	3	96	1
TAP	3	192	1
TAP	3	288	1
TAP	4	0	1
TAP	4	96	0
TAP	4	192	1
TAP	5	0	0
TAP	5	96	0
TAP	5	192	7
TAP	5	288	7
TAP	6	0	0
TAP	6	96	7
TAP	6	192	7
TAP	7	0	3
TAP	7	96	3
TAP	7	192	4
TAP	7	288	4
STR	8	0	3
SI_	8	0	3	96	144	0
STR	8	0	4
SI_	8	0	4	96	144	7
HLD	9	0	1	96
TAP	9	96	2
HLD	9	192	6	96
TAP	9	288	5
HLD	10	0	1	96
TAP	10	96	3
HLD	10	192	6	96
TAP	10	288	4
HLD	11	0	0	96
TAP	11	96	2
HLD	11	192	7	96
TAP	11	288	5
HLD	12	0	0	96
TAP	12	96	7
TAP	12	192	0
TAP	12	192	7
BRK	12	288	1
BRK	12	288	6
STR	13	0	4
SI_	13	0	4	96	48	7
STR	13	192	0
SI_	13	192	0	96	48	3
STR	14	0	6
SI_	14	0	6	96	48	3
STR	14	192	2
SI_	14	192	2	96	48	6
STR	15	0	7
SI_	15	0	7	96	48	4
STR	15	192	0
SI_	15	192	0	96	48	3
STR	16	0	7
SI_	16	0	7	96	48	4
STR	16	192	0
SI_	16	192	0	96	48	4
HLD	17	0	7	384
HLD	18	0	5	384
HLD	19	0	3	384
HLD	20	0	1	192
TAP	20	192	7
BRK	20	288	0
TAP	21	0	5
TAP	21	96	4
TAP	21	96	5
TAP	21	192	5
TAP	21	288	4
TAP	21	288	5
TAP	22	0	2
TAP	22	96	2
TAP	22	96	3
TAP	22	192	2
TAP	22	288	2
TAP	22	288	3
TAP	23	0	6
TAP	23	96	6
TAP	23	96	7
TAP	23	192	6
TAP	23	288	6
TAP	23	288	7
STR	24	0	1
SUR	24	0	1	96	192	4
TAP	25	0	2
TAP	25	0	3
TAP	25	96	2
TAP	25	96	3
TAP	25	192	4
TAP	25	192	5
TAP	25	288	4
TAP	25	288	5
TAP	26	0	2
TAP	26	0	3
TAP	26	96	4
TAP	26	96	5
TAP	26	192	4
TAP	26	192	5
TAP	27	0	1
TAP	27	0	2
TAP	27	96	2
TAP	27	96	3
TAP	27	192	5
TAP	27	192	6
TAP	27	288	4
TAP	27	288	5
TAP	28	0	2
TAP	28	0	3
TAP	28	96	2
TAP	28	96	3
TAP	28	192	4
TAP	28	192	5
TAP	28	288	4
TAP	28	288	5
TAP	29	0	2
TAP	29	0	3
TAP	29	96	2
TAP	29	96	3
TAP	29	192	4
TAP	29	192	5
TAP	29	288	4
TAP	29	288	5
TAP	30	0	2
TAP	30	0	3
TAP	30	96	4
TAP	30	96	5
TAP	30	192	4
TAP	30	192	5
TAP	31	0	1
TAP	31	0	2
TAP	31	96	2
TAP	31	96	3
TAP	31	192	5
TAP	31	192	6
TAP	31	288	4
TAP	31	288	5
TAP	32	0	4
TAP	32	0	5
TAP	32	96	4
TAP	32	96	5
TAP	32	144	4
TAP	32	144	5
TAP	32	192	4
TAP	32	192	5
TAP	32	240	4
TAP	32	240	5
TAP	32	288	4
TAP	32	288	5
TAP	32	336	4
TAP	32	336	5
TAP	33	0	4
TAP	33	0	5
TAP	33	96	4
TAP	33	96	5
TAP	33	192	2
TAP	33	192	3
TAP	33	288	2
TAP	33	288	3
TAP	34	0	4
TAP	34	0	5
TAP	34	96	2
TAP	34	96	3
TAP	34	192	2
TAP	34	192	3
TAP	35	0	5
TAP	35	0	6
TAP	35	96	4
TAP	35	96	5
TAP	35	192	1
TAP	35	192	2
TAP	35	288	2
TAP	35	288	3
TAP	36	0	4
TAP	36	0	5
TAP	36	96	4
TAP	36	96	5
TAP	36	192	2
TAP	36	192	3
TAP	36	288	2
TAP	36	288	3
TAP	37	0	4
TAP	37	0	5
TAP	37	96	4
TAP	37	96	5
TAP	37	192	2
TAP	37	192	3
TAP	37	288	2
TAP	37	288	3
TAP	38	0	4
TAP	38	0	5
TAP	38	96	2
TAP	38	96	3
TAP	38	192	2
TAP	38	192	3
TAP	39	0	5
TAP	39	0	6
TAP	39	96	4
TAP	39	96	5
TAP	39	192	1
TAP	39	192	2
TAP	39	288	2
TAP	39	288	3
TAP	40	0	0
TAP	40	0	7
TAP	41	0	0
TAP	41	0	7
TAP	41	192	0
TAP	41	288	7
TAP	42	0	0
TAP	42	0	7
TAP	42	192	1
TAP	42	288	6
TAP	43	0	1
TAP	43	0	6
TAP	43	192	2
TAP	43	288	5
TAP	44	0	2
TAP	44	0	5
TAP	44	192	2
TAP	44	192	5
TAP	44	288	3
TAP	44	288	4
TAP	45	0	2
TAP	45	0	5
TAP	45	192	2
TAP	45	192	3
TAP	45	288	3
TAP	45	288	4
TAP	46	0	4
TAP	46	0	5
TAP	46	192	4
TAP	46	192	6
TAP	46	288	3
TAP	46	288	5
TAP	47	0	2
TAP	47	0	4
TAP	47	192	0
TAP	47	192	1
TAP	47	288	0
TAP	47	288	7
TAP	48	0	6
TAP	48	0	7
TAP	48	192	0
TAP	48	192	7
TAP	48	288	1
TAP	48	288	6
TAP	49	0	0
TAP	49	96	0
TAP	49	192	2
TAP	49	288	2
TAP	50	0	4
TAP	50	96	4
TAP	50	192	6
TAP	50	288	6
TAP	51	0	7
TAP	51	96	7
TAP	51	192	5
TAP	51	288	5
TAP	52	0	3
TAP	52	96	3
TAP	52	192	1
TAP	52	288	1
TAP	53	0	2
TAP	53	96	2
TAP	53	192	3
TAP	53	288	3
TAP	54	0	4
TAP	54	96	4
TAP	54	192	5
TAP	54	288	5
TAP	55	0	3
TAP	55	48	3
TAP	55	96	3
TAP	55	144	3
TAP	55	192	4
TAP	55	240	4
TAP	55	288	4
TAP	55	336	4
TAP	56	0	2
TAP	56	0	5
TAP	56	96	2
TAP	56	96	5
TAP	57	0	0
TAP	57	0	1
TAP	57	96	0
TAP	57	96	1
TAP	57	192	6
TAP	57	192	7
TAP	57	288	6
TAP	57	288	7
TAP	58	0	0
TAP	58	0	1
TAP	58	96	6
TAP	58	96	7
TAP	58	192	6
TAP	58	192	7
TAP	59	0	0
TAP	59	0	1
TAP	59	96	2
TAP	59	96	7
TAP	59	192	6
TAP	59	192	7
TAP	59	288	0
TAP	59	288	5
TAP	60	0	2
TAP	60	0	7
TAP	60	96	0
TAP	60	96	1
TAP	60	192	0
TAP	60	192	5
TAP	60	288	6
TAP	60	288	7
TAP	61	0	0
TAP	61	0	1
TAP	61	96	1
TAP	61	96	7
TAP	61	192	6
TAP	61	192	7
TAP	61	288	0
TAP	61	288	6
TAP	62	0	0
TAP	62	0	7
TAP	62	96	1
TAP	62	96	6
TAP	62	192	1
TAP	62	192	6
TAP	63	0	1
TAP	63	0	6
TAP	63	96	1
TAP	63	96	6
TAP	63	192	0
TAP	63	192	7
TAP	63	288	0
TAP	63	288	7
TAP	64	0	0
TAP	64	0	7
TAP	64	96	0
TAP	64	96	7
TAP	64	144	0
TAP	64	144	7
TAP	64	192	0
TAP	64	192	7
TAP	64	240	0
TAP	64	240	7
TAP	64	288	0
TAP	64	288	7
BRK	64	336	0
BRK	64	336	7
TAP	65	0	0
TAP	65	0	7
TAP	65	96	2
TAP	65	96	3
TAP	65	192	6
TAP	65	192	7
TAP	65	240	6
TAP	65	240	7
TAP	65	288	6
TAP	65	288	7
TAP	66	0	0
TAP	66	0	7
TAP	66	96	4
TAP	66	96	5
TAP	66	192	2
TAP	66	192	3
TAP	66	288	2
TAP	66	288	3
TAP	67	0	3
TAP	67	0	4
TAP	67	96	0
TAP	67	96	1
TAP	67	192	4
TAP	67	192	5
TAP	67	240	4
TAP	67	240	5
TAP	67	288	4
TAP	67	288	5
TAP	68	0	3
TAP	68	0	4
TAP	68	96	6
TAP	68	96	7
TAP	68	192	2
TAP	68	192	3
BRK	68	288	2
BRK	68	288	3
TAP	69	0	2
TAP	69	48	3
TAP	69	96	2
TAP	69	192	5
TAP	69	240	4
TAP	69	288	5
TAP	70	0	6
TAP	70	0	7
TAP	70	96	4
TAP	70	96	5
TAP	70	192	2
TAP	70	192	3
TAP	70	288	0
TAP	70	288	1
HLD	71	0	1	288
HLD	71	0	6	288
TAP	72	0	0
TAP	72	48	0
TAP	72	96	6
TAP	72	144	6
TAP	72	192	2
TAP	72	240	2
BRK	72	288	4
TAP	73	0	0
TAP	73	0	1
TAP	73	96	2
TAP	73	96	3
TAP	73	192	4
TAP	73	192	5
TAP	73	288	6
TAP	73	288	7
TAP	74	0	6
TAP	74	0	7
TAP	74	96	4
TAP	74	96	5
TAP	74	192	2
TAP	74	192	3
TAP	74	288	0
TAP	74	288	1
STR	75	0	6
SI_	75	0	6	96	48	3
STR	75	192	1
SI_	75	192	1	96	48	4
TAP	76	0	5
STR	76	96	1
SI_	76	96	1	96	48	4
STR	76	96	6
SI_	76	96	6	96	48	3
TAP	77	0	2
TAP	77	96	2
TAP	77	96	6
TAP	77	192	6
TAP	77	288	2
TAP	77	288	6
TAP	78	0	2
TAP	78	0	6
TAP	78	96	2
TAP	78	96	6
TAP	78	192	1
TAP	78	192	5
TAP	78	288	0
TAP	78	288	4
TAP	79	0	0
TAP	79	96	0
TAP	79	96	4
TAP	79	192	4
TAP	79	288	0
TAP	79	288	4
TAP	80	0	0
TAP	80	0	4
TAP	80	96	1
TAP	80	96	5
TAP	80	192	2
TAP	80	192	6
TAP	80	288	3
TAP	80	288	7
STR	81	0	0
SI_	81	0	0	96	48	2
STR	81	192	7
SI_	81	192	7	96	48	3
STR	82	0	0
SI_	82	0	0	96	48	4
STR	82	192	7
SI_	82	192	7	96	48	5
TAP	83	0	2
TAP	83	96	1
TAP	83	192	0
TAP	83	288	6
TAP	83	288	7
TAP	84	0	5
TAP	84	96	6
TAP	84	192	7
TAP	84	288	0
TAP	84	288	1
STR	85	0	1
SI_	85	0	1	96	48	6
STR	85	192	5
SI_	85	192	5	96	48	2
STR	86	0	1
SI_	86	0	1	96	48	6
STR	86	192	5
SI_	86	192	5	96	48	2
TAP	87	0	3
TAP	87	48	3
TAP	87	96	5
TAP	87	144	5
TAP	87	192	1
TAP	87	240	1
TAP	87	288	7
TAP	87	336	7
BRK	88	0	0
STR	88	192	1
SI_	88	192	1	96	48	5

T_REC_TAP	432
T_REC_BRK	9
T_REC_XTP	0
T_REC_HLD	13
T_REC_XHO	0
T_REC_STR	24
T_REC_BST	0
T_REC_XST	0
T_REC_TTP	0
T_REC_THO	0
T_REC_SLD	24
T_REC_ALL	502
T_NUM_TAP	456
T_NUM_BRK	9
T_NUM_HLD	13
T_NUM_SLD	24
T_NUM_ALL	502
T_JUDGE_TAP	465
T_JUDGE_HLD	54
T_JUDGE_SLD	24
T_JUDGE_ALL	543
TTM_EACHPAIRS	168
TTM_SCR_TAP	228000
TTM_SCR_BRK	23400
TTM_SCR_HLD	13000
TTM_SCR_SLD	36000
TTM_SCR_ALL	300400
TTM_SCR_S	290550
TTM_SCR_SS	299500
TTM_RAT_ACV	10030

