VERSION	0.00.00	1.03.00
FES_MODE	0
BPM_DEF	170.000	170.000	170.000	170.000
MET_DEF	4	4
RESOLUTION	384
CLK_DEF	384
COMPATIBLE_CODE	MA2

BPM	0	0	170.000
MET	0	0	4	4

TAP	8	0	3
TAP	8	0	4
TAP	9	0	3
TAP	9	192	4
TAP	10	0	3
TAP	10	192	4
TAP	11	0	3
TAP	11	192	4
TAP	12	0	3
TAP	12	192	3
TAP	12	192	4
TAP	13	0	4
TAP	13	192	5
TAP	14	0	6
TAP	14	192	7
TAP	15	0	0
TAP	15	192	1
TAP	16	0	2
TAP	16	192	3
TAP	17	0	4
TAP	17	96	4
TAP	17	192	4
TAP	18	0	3
TAP	18	96	3
TAP	18	192	3
TAP	19	0	5
TAP	19	96	5
TAP	19	192	5
TAP	20	0	2
TAP	20	96	2
TAP	20	192	2
TAP	20	192	3
TAP	21	0	1
TAP	21	96	1
TAP	21	192	1
TAP	22	0	6
TAP	22	96	6
TAP	22	192	6
TAP	23	0	0
TAP	23	96	0
TAP	23	192	0
BRK	24	0	0
BRK	24	0	7
TAP	25	0	0
TAP	25	96	0
TAP	25	192	0
TAP	25	288	0
TAP	26	0	7
TAP	26	96	7
TAP	26	192	7
TAP	27	0	0
TAP	27	96	0
TAP	27	192	0
TAP	27	288	0
TAP	28	0	7
TAP	28	96	7
TAP	28	192	7
TAP	29	0	3
TAP	29	96	3
TAP	29	192	3
TAP	29	288	3
TAP	30	0	4
TAP	30	96	4
TAP	30	192	4
TAP	31	0	3
TAP	31	96	3
TAP	31	192	3
TAP	31	288	3
TAP	32	0	4
TAP	32	96	4
TAP	32	192	4
TAP	33	0	3
TAP	33	96	3
TAP	33	192	4
TAP	33	288	4
TAP	34	0	3
TAP	34	96	4
TAP	34	192	4
TAP	35	0	3
TAP	35	96	3
TAP	35	192	4
TAP	35	288	4
TAP	36	0	2
TAP	36	96	2
TAP	36	192	5
TAP	37	0	3
TAP	37	96	3
TAP	37	192	4
TAP	37	288	4
TAP	38	0	3
TAP	38	96	4
TAP	38	192	4
TAP	39	0	3
TAP	39	96	3
TAP	39	192	4
TAP	39	288	4
BRK	40	0	3
BRK	40	0	4
TAP	41	0	0
TAP	41	0	1
TAP	42	0	2
TAP	42	0	3
TAP	43	0	4
TAP	43	0	5
TAP	44	0	6
TAP	44	0	7
TAP	45	0	0
TAP	45	0	7
TAP	46	0	5
TAP	46	0	6
TAP	47	0	3
TAP	47	0	4
TAP	48	0	1
TAP	48	0	2
TAP	49	0	0
TAP	49	0	7
TAP	49	192	1
TAP	50	0	0
TAP	50	0	1
TAP	50	192	6
TAP	51	0	6
TAP	51	0	7
TAP	51	192	5
TAP	52	0	4
TAP	52	0	5
TAP	52	192	2
TAP	53	0	2
TAP	53	0	3
TAP	53	192	4
TAP	53	288	4
TAP	54	0	3
TAP	54	0	4
TAP	54	192	0
TAP	54	288	0
TAP	55	0	0
TAP	55	0	7
TAP	55	192	0
TAP	55	288	7
STR	56	0	0
SI_	56	0	0	96	96	4
TAP	57	0	2
TAP	57	96	3
TAP	57	192	2
TAP	58	0	5
TAP	58	96	4
TAP	58	192	5
TAP	59	0	2
TAP	59	96	3
TAP	59	192	2
TAP	60	0	5
TAP	60	96	4
TAP	60	192	5
TAP	61	0	2
TAP	61	96	3
TAP	61	192	2
TAP	61	288	3
TAP	62	0	4
TAP	62	96	4
TAP	62	192	5
TAP	63	0	5
TAP	63	96	4
TAP	63	192	5
TAP	63	288	4
TAP	64	0	3
TAP	64	96	3
TAP	64	192	2
TAP	65	0	1
TAP	65	96	0
TAP	65	192	1
TAP	65	288	0
TAP	66	0	7
TAP	66	96	6
TAP	66	192	7
TAP	67	0	6
TAP	67	96	7
TAP	67	192	6
TAP	67	288	7
TAP	68	0	0
TAP	68	96	1
TAP	68	192	0
TAP	69	0	1
TAP	69	96	1
TAP	69	192	2
TAP	69	288	2
TAP	70	0	3
TAP	70	96	3
TAP	70	192	3
TAP	70	192	4
TAP	71	0	5
TAP	71	96	5
TAP	71	192	6
TAP	71	288	6
HLD	72	0	0	192
HLD	72	0	7	192
TAP	73	0	0
TAP	73	96	0
TAP	73	192	1
TAP	73	288	1
TAP	74	0	0
TAP	74	96	0
TAP	74	192	6
TAP	74	192	7
TAP	75	0	6
TAP	75	96	7
TAP	75	192	6
TAP	75	288	7
TAP	76	0	6
TAP	76	96	5
TAP	76	192	3
TAP	76	192	4
TAP	77	0	4
TAP	77	96	4
TAP	77	192	5
TAP	77	288	5
TAP	78	0	4
TAP	78	96	4
TAP	78	192	2
TAP	78	192	3
TAP	79	0	2
TAP	79	96	3
TAP	79	192	2
TAP	79	288	3
TAP	80	0	2
TAP	80	96	1
TAP	80	192	0
TAP	80	192	7
TAP	81	0	0
TAP	81	96	1
TAP	81	192	0
TAP	81	288	1
TAP	82	0	2
TAP	82	96	3
TAP	82	192	4
TAP	82	192	5
TAP	83	0	4
TAP	83	96	5
TAP	83	192	4
TAP	83	288	5
TAP	84	0	6
TAP	84	96	7
TAP	84	192	0
TAP	84	192	1
TAP	85	0	0
TAP	85	96	1
TAP	85	192	2
TAP	85	288	3
TAP	86	0	4
TAP	86	96	5
TAP	86	192	6
TAP	86	288	7
TAP	87	0	0
TAP	87	96	7
TAP	87	192	1
TAP	87	288	6
HLD	88	0	0	288
HLD	88	0	7	288
BRK	89	0	1
BRK	89	0	6

T_REC_TAP	246
T_REC_BRK	6
T_REC_XTP	0
T_REC_HLD	4
T_REC_XHO	0
T_REC_STR	1
T_REC_BST	0
T_REC_XST	0
T_REC_TTP	0
T_REC_THO	0
T_REC_SLD	1
T_REC_ALL	258
T_NUM_TAP	247
T_NUM_BRK	6
T_NUM_HLD	4
T_NUM_SLD	1
T_NUM_ALL	258
T_JUDGE_TAP	253
T_JUDGE_HLD	20
T_JUDGE_SLD	1
T_JUDGE_ALL	274
TTM_EACHPAIRS	30
TTM_SCR_TAP	123500
TTM_SCR_BRK	15600
TTM_SCR_HLD	4000
TTM_SCR_SLD	1500
TTM_SCR_ALL	144600
TTM_SCR_S	139700
TTM_SCR_SS	144000
TTM_RAT_ACV	10041

