VERSION	0.00.00	1.03.00
FES_MODE	0
BPM_DEF	180.000	180.000	180.000	180.000
MET_DEF	4	4
RESOLUTION	384
CLK_DEF	384
COMPATIBLE_CODE	MA2

BPM	0	0	180.000
MET	0	0	4	4

TAP	1	0	5
TAP	1	48	5
TAP	1	96	4
TAP	1	144	5
TAP	1	192	2
TAP	1	240	2
TAP	1	288	3
TAP	1	336	2
TAP	2	0	5
TAP	2	48	5
TAP	2	96	4
TAP	2	144	5
TAP	3	0	2
TAP	3	48	2
TAP	3	96	3
TAP	3	144	2
TAP	3	192	5
TAP	3	240	5
TAP	3	288	4
TAP	3	336	5
TAP	4	0	2
TAP	4	48	2
TAP	4	96	3
TAP	4	144	2
BRK	4	288	1
BRK	4	288	6
TAP	5	0	0
TAP	5	48	7
TAP	5	96	2
TAP	5	144	5
TAP	5	168	4
TAP	5	192	5
TAP	5	240	1
TAP	5	288	3
TAP	5	336	2
TAP	6	0	5
TAP	6	48	3
TAP	6	96	6
TAP	6	144	0
HLD	6	192	7	96
TAP	6	288	6
TAP	7	0	7
TAP	7	48	0
TAP	7	96	5
TAP	7	144	2
TAP	7	168	3
TAP	7	192	2
TAP	7	240	6
TAP	7	288	4
TAP	7	336	5
TAP	8	0	2
TAP	8	48	4
TAP	8	96	1
TAP	8	144	7
HLD	8	192	0	96
TAP	8	288	1
TAP	9	0	0
TAP	9	48	7
TAP	9	96	2
TAP	9	144	5
TAP	9	168	4
TAP	9	192	5
TAP	9	240	1
TAP	9	288	3
TAP	9	336	2
TAP	10	0	5
TAP	10	48	3
TAP	10	96	6
TAP	10	144	0
HLD	10	192	7	96
TAP	10	288	6
TAP	11	0	7
TAP	11	48	0
TAP	11	96	5
TAP	11	144	2
TAP	11	168	3
TAP	11	192	2
TAP	11	240	6
TAP	11	288	4
TAP	11	336	5
TAP	12	0	2
TAP	12	48	4
TAP	12	96	1
TAP	12	144	6
TAP	12	192	3
TAP	12	216	4
TAP	12	240	3
TAP	12	264	4
TAP	12	288	3
TAP	12	312	4
TAP	12	336	3
STR	13	0	5
SCL	13	0	5	96	48	2
TAP	13	48	5
TAP	13	96	0
TAP	13	144	0
STR	13	192	1
SCL	13	192	1	96	48	6
TAP	13	240	1
TAP	13	288	4
TAP	13	336	4
TAP	14	0	5
TAP	14	48	4
TAP	14	144	1
TAP	14	192	3
TAP	14	240	2
TAP	14	336	5
STR	15	0	3
SV_	15	0	3	96	48	4
TAP	15	48	3
TAP	15	96	6
TAP	15	144	6
STR	15	192	5
SUR	15	192	5	96	48	2
TAP	15	240	5
TAP	15	288	3
TAP	15	336	3
TAP	16	0	1
TAP	16	48	3
TAP	16	96	2
TAP	16	144	4
TAP	16	192	3
TAP	16	240	5
TAP	16	288	4
TAP	16	336	6
TAP	17	0	0
TAP	17	0	7
TAP	17	48	1
TAP	17	96	0
TAP	17	96	7
TAP	17	144	6
TAP	17	192	0
TAP	17	192	7
TAP	17	240	1
TAP	17	288	0
TAP	17	288	7
TAP	17	336	6
TAP	18	0	2
TAP	18	48	3
TAP	18	144	5
TAP	18	192	4
TAP	18	240	5
TAP	18	336	2
TAP	19	0	1
TAP	19	0	5
TAP	19	48	0
TAP	19	48	4
TAP	19	96	3
TAP	19	96	7
TAP	19	144	0
TAP	19	144	4
TAP	19	192	1
TAP	19	192	5
TAP	19	240	2
TAP	19	240	6
TAP	19	288	3
TAP	19	288	7
STR	19	336	0
SCL	19	336	0	96	96	5
STR	19	336	4
SCL	19	336	4	96	96	1
TAP	20	240	7
TAP	20	264	0
TAP	20	288	1
TAP	20	312	2
TAP	20	336	3
TAP	21	0	4
BRK	21	0	5
TAP	21	48	3
TAP	21	96	2
TAP	21	96	4
TAP	21	144	3
BRK	21	192	2
TAP	21	192	3
TAP	21	240	4
TAP	21	288	3
TAP	21	288	5
TAP	21	336	2
TAP	22	0	1
TAP	22	48	1
TAP	22	96	2
TAP	22	144	1
TAP	22	192	6
TAP	22	240	6
TAP	22	288	5
TAP	22	336	6
TAP	23	0	1
TAP	23	0	5
TAP	23	48	3
TAP	23	96	1
TAP	23	96	5
TAP	23	144	7
TAP	23	192	2
TAP	23	192	6
TAP	23	240	4
TAP	23	288	2
TAP	23	288	6
TAP	23	336	0
TAP	24	0	6
TAP	24	48	4
TAP	24	96	5
TAP	24	144	3
TAP	24	192	4
TAP	24	240	2
TAP	24	288	3
TAP	24	336	1
STR	25	0	0
SCR	25	0	0	96	48	4
HLD	25	0	6	96
TAP	25	48	0
STR	25	192	1
SCR	25	192	1	96	48	5
HLD	25	192	7	96
TAP	25	240	1
TAP	26	0	6
TAP	26	48	6
TAP	26	96	5
TAP	26	144	6
TAP	26	192	1
TAP	26	240	1
TAP	26	288	2
TAP	26	336	1
TAP	27	0	3
TAP	27	0	7
TAP	27	48	2
TAP	27	48	6
TAP	27	96	3
TAP	27	96	7
TAP	27	144	2
TAP	27	144	6
TAP	27	192	0
TAP	27	192	4
TAP	27	240	1
TAP	27	240	5
TAP	27	288	0
TAP	27	288	4
STR	27	336	1
SCR	27	336	1	96	144	4
STR	27	336	5
SCR	27	336	5	96	144	0
STR	29	0	0
SSL	29	0	0	96	192	4
STR	29	0	5
SSR	29	0	5	96	192	1
TAP	30	0	0
TAP	30	0	5
TAP	30	48	6
TAP	30	72	7
TAP	30	96	6
TAP	30	144	0
TAP	30	144	5
TAP	30	192	2
TAP	30	192	3
TAP	30	288	3
TAP	30	288	4
STR	31	0	3
SSR	31	0	3	96	192	7
STR	31	0	6
SSL	31	0	6	96	192	2
TAP	32	0	2
TAP	32	0	7
TAP	32	48	1
TAP	32	72	0
TAP	32	96	1
TAP	32	144	2
TAP	32	144	7
TAP	32	192	4
TAP	32	192	5
TAP	32	240	6
TAP	32	288	3
TAP	32	312	4
TAP	32	336	3
TAP	33	0	5
TAP	33	48	6
TAP	33	96	7
TAP	33	144	0
TAP	33	192	1
HLD	33	240	2	96
BRK	33	336	1
BRK	34	0	0
BRK	34	48	7
BRK	34	96	6
BRK	34	144	5
TAP	34	240	0
TAP	34	288	0
TAP	34	336	6
STR	35	0	5
SSR	35	0	5	96	96	1
STR	35	96	1
SSR	35	96	1	96	96	5
TAP	35	192	0
TAP	35	240	0
TAP	35	288	2
TAP	35	336	1
TAP	36	0	2
TAP	36	48	3
TAP	36	96	4
TAP	36	144	5
TAP	36	192	2
TAP	36	216	3
TAP	36	240	2
TAP	36	288	5
TAP	36	312	4
TAP	36	336	5
STR	37	0	3
SI_	37	0	3	96	48	0
TAP	37	48	3
STR	37	96	7
SI_	37	96	7	96	48	4
TAP	37	144	7
STR	37	192	3
SI_	37	192	3	96	48	0
TAP	37	240	3
TAP	37	288	7
HLD	37	336	7	96
STR	38	48	0
SUR	38	48	0	96	96	6
TAP	38	144	0
TAP	38	240	7
TAP	38	288	7
TAP	38	336	3
TAP	38	336	4
TAP	39	0	2
TAP	39	0	3
TAP	39	48	3
TAP	39	48	4
TAP	39	96	4
TAP	39	96	5
TAP	39	144	3
TAP	39	144	4
TAP	39	192	2
TAP	39	192	3
TAP	39	240	3
TAP	39	240	4
TAP	39	288	4
TAP	39	288	5
TAP	39	336	6
TAP	39	336	7
TAP	40	0	0
TAP	40	0	7
TAP	40	48	0
TAP	40	48	1
TAP	40	96	0
TAP	40	96	7
TAP	40	144	6
TAP	40	144	7
TAP	40	192	5
TAP	40	216	4
TAP	40	240	5
TAP	40	288	2
TAP	40	312	3
TAP	40	336	2
TAP	41	0	3
TAP	41	0	4
TAP	41	96	3
TAP	41	96	4
TAP	41	144	2
TAP	41	144	5
TAP	41	192	1
TAP	41	192	6
TAP	41	240	0
TAP	41	240	7
HLD	41	288	1	96
TAP	41	336	2
HLD	42	0	6	96
TAP	42	48	5
HLD	42	96	1	48
TAP	42	144	0
TAP	42	240	7
TAP	42	288	7
TAP	42	336	0
STR	43	0	7
SI_	43	0	7	96	48	5
TAP	43	48	0
STR	43	96	7
SI_	43	96	7	96	48	3
TAP	43	144	0
STR	43	192	7
SUL	43	192	7	96	48	2
TAP	43	240	0
STR	43	288	7
SCL	43	288	7	96	96	1
TAP	43	336	0
TAP	44	0	7
TAP	44	96	0
TAP	44	144	0
TAP	44	192	5
TAP	44	216	4
TAP	44	240	5
TAP	44	288	2
TAP	44	312	3
TAP	44	336	2
TAP	45	0	4
TAP	45	0	6
TAP	45	96	1
TAP	45	96	3
STR	45	192	5
SI_	45	192	5	96	48	7
TAP	45	240	5
STR	45	288	3
SI_	45	288	3	96	48	1
TAP	45	336	3
STR	46	0	4
SI_	46	0	4	96	48	6
TAP	46	48	4
STR	46	96	2
SUL	46	96	2	96	96	0
TAP	46	144	2
TAP	46	336	7
TAP	47	0	6
STR	47	48	5
SSR	47	48	5	96	96	1
TAP	47	96	4
TAP	47	144	3
TAP	47	240	0
TAP	47	336	3
TAP	47	336	4
TAP	48	0	3
TAP	48	0	5
TAP	48	48	3
TAP	48	48	4
TAP	48	96	2
TAP	48	96	4
TAP	48	144	3
TAP	48	144	4
TAP	48	192	2
TAP	48	216	3
TAP	48	240	2
TAP	48	288	5
TAP	48	312	4
STR	48	336	5
SUL	48	336	5	96	240	2
TAP	50	0	2
TAP	50	48	2
TAP	50	96	3
TAP	50	144	2
TAP	50	192	6
TAP	50	240	6
TAP	50	288	7
TAP	50	336	6
STR	51	0	5
SCL	51	0	5	96	48	2
TAP	51	96	7
TAP	51	144	0
STR	51	192	1
SCL	51	192	1	96	48	6
TAP	52	0	5
TAP	52	48	5
TAP	52	96	4
TAP	52	144	5
TAP	52	192	1
TAP	52	240	1
TAP	52	288	0
TAP	52	336	1
TAP	53	0	2
TAP	53	48	3
STR	53	96	4
SCL	53	96	4	96	48	1
TAP	53	144	5
TAP	53	192	6
TAP	53	288	0
TAP	53	336	0
HLD	54	0	3	48
HLD	54	0	4	48
HLD	54	96	3	48
HLD	54	96	4	48
HLD	54	192	3	48
HLD	54	192	4	48
HLD	54	288	3	48
HLD	54	288	4	48
TAP	55	0	1
TAP	55	48	2
STR	55	96	3
SCL	55	96	3	96	48	0
STR	55	192	4
SCR	55	192	4	96	48	7
HLD	56	0	0	48
HLD	56	48	4	48
HLD	56	96	3	48
HLD	56	144	7	48
HLD	56	192	6	384
HLD	56	288	1	288
TAP	57	240	0
TAP	57	264	7
TAP	57	288	6
TAP	57	312	5
TAP	57	336	4
BRK	58	0	2
BRK	58	0	3
TAP	58	48	1
BRK	58	96	4
BRK	58	96	5
TAP	58	144	6
BRK	58	192	2
BRK	58	192	3
TAP	58	240	1
BRK	58	288	4
BRK	58	288	5
TAP	58	336	6
TAP	59	0	0
HLD	59	48	1	96
TAP	59	144	0
TAP	59	192	7
HLD	59	240	6	96
TAP	59	336	7
BRK	60	0	0
TAP	60	48	7
TAP	60	96	1
TAP	60	96	6
TAP	60	144	2
TAP	60	144	5
STR	60	192	0
SI_	60	192	0	96	48	4
HLD	60	240	0	96
TAP	61	0	7
HLD	61	48	6	96
TAP	61	144	7
TAP	61	192	0
HLD	61	240	1	96
TAP	61	336	0
HLD	62	0	2	96
TAP	62	48	3
HLD	62	96	5	96
TAP	62	144	4
HLD	62	192	2	96
TAP	62	240	0
HLD	62	288	5	48
TAP	62	336	7
TAP	63	0	4
HLD	63	48	5	96
TAP	63	144	4
TAP	63	192	3
HLD	63	240	2	96
TAP	63	336	3
STR	64	0	0
SCR	64	0	0	96	48	3
STR	64	0	1
SCL	64	0	1	96	48	6
STR	64	192	6
SCR	64	192	6	96	48	1
STR	64	192	7
SCL	64	192	7	96	48	4
TAP	65	0	3
HLD	65	48	2	96
TAP	65	144	3
TAP	65	192	4
HLD	65	240	5	96
TAP	65	336	4
STR	66	0	0
SSR	66	0	0	96	192	4
STR	66	0	3
SSL	66	0	3	96	192	7
TAP	67	0	3
TAP	67	0	6
TAP	67	48	5
TAP	67	72	4
TAP	67	96	5
TAP	67	144	3
TAP	67	144	6
TAP	67	192	0
TAP	67	192	1
TAP	67	288	3
TAP	67	288	4
STR	68	0	4
SSR	68	0	4	96	192	0
STR	68	0	7
SSL	68	0	7	96	192	3
TAP	69	0	1
TAP	69	0	4
TAP	69	48	2
TAP	69	72	3
TAP	69	96	2
TAP	69	144	1
TAP	69	144	4
TAP	69	192	6
TAP	69	192	7
TAP	69	240	2
TAP	69	288	5
TAP	69	312	4
TAP	69	336	5
HLD	70	0	0	48
HLD	70	48	6	48
HLD	70	96	4	48
HLD	70	144	7	48
HLD	70	192	1	48
HLD	70	240	3	48
HLD	70	288	5	48
HLD	70	336	7	48
HLD	71	0	3	48
HLD	71	48	1	48
HLD	71	96	0	48
BRK	71	144	4
TAP	71	240	0
TAP	71	240	7
TAP	71	288	0
TAP	71	288	7
HLD	72	0	5	96
TAP	72	48	7
HLD	72	96	4	96
TAP	72	144	7
HLD	72	192	5	96
TAP	72	240	7
HLD	72	288	2	96
TAP	72	336	0
HLD	73	0	3	96
TAP	73	48	0
HLD	73	96	2	48
TAP	73	144	0
TAP	73	192	2
TAP	73	216	3
TAP	73	240	1
TAP	73	264	3
TAP	73	288	2
TAP	73	312	4
TAP	73	336	2
TAP	74	0	4
BRK	74	0	5
BRK	74	48	3
TAP	74	48	5
TAP	74	96	2
BRK	74	96	5
BRK	74	144	1
TAP	74	144	5
TAP	74	192	2
BRK	74	192	5
BRK	74	240	1
TAP	74	240	5
TAP	74	288	0
BRK	74	288	5
BRK	74	336	2
TAP	74	336	3
TAP	75	0	2
BRK	75	0	4
BRK	75	48	2
TAP	75	48	5
TAP	75	96	2
BRK	75	96	6
BRK	75	144	2
TAP	75	144	7
TAP	75	240	0
TAP	75	240	7
TAP	75	288	0
TAP	75	288	7
STR	76	0	2
SCR	76	0	2	96	48	4
STR	76	0	6
SCL	76	0	6	96	48	4
TAP	76	48	1
TAP	76	48	7
STR	76	192	1
SCR	76	192	1	96	48	3
STR	76	192	5
SCL	76	192	5	96	48	3
TAP	76	240	0
TAP	76	240	6
STR	77	0	2
SCR	77	0	2	96	48	4
STR	77	0	6
SCL	77	0	6	96	48	4
TAP	77	48	1
TAP	77	48	7
TAP	77	192	5
TAP	77	216	4
TAP	77	240	6
TAP	77	264	4
TAP	77	288	5
TAP	77	312	3
TAP	77	336	5
STR	78	0	0
SV_	78	0	0	96	48	5
TAP	78	48	0
STR	78	96	7
SV_	78	96	7	96	48	2
TAP	78	144	7
STR	78	192	1
SV_	78	192	1	96	48	4
TAP	78	240	1
STR	78	288	6
SV_	78	288	6	96	48	3
TAP	78	336	6
STR	79	0	2
SV_	79	0	2	96	48	7
TAP	79	48	2
STR	79	96	5
SV_	79	96	5	96	48	0
TAP	79	144	5
TAP	79	240	2
TAP	79	288	2
TAP	79	336	7
STR	80	0	1
SI_	80	0	1	96	48	6
TAP	80	48	1
STR	80	96	5
SI_	80	96	5	96	48	2
TAP	80	144	5
STR	80	192	6
SI_	80	192	6	96	48	1
TAP	80	240	6
STR	80	288	5
SI_	80	288	5	96	48	2
TAP	80	336	5
STR	81	0	6
SI_	81	0	6	96	48	1
TAP	81	48	6
TAP	81	96	5
TAP	81	144	5
TAP	81	192	2
TAP	81	216	3
TAP	81	240	1
TAP	81	264	3
TAP	81	288	2
TAP	81	312	4
TAP	81	336	3
STR	82	0	0
SCL	82	0	0	96	48	6
STR	82	0	7
SCR	82	0	7	96	48	1
TAP	82	48	0
TAP	82	48	7
STR	82	192	0
SCL	82	192	0	96	48	5
STR	82	192	7
SCR	82	192	7	96	48	2
TAP	82	240	0
TAP	82	240	7
TAP	83	0	1
TAP	83	0	6
STR	83	48	0
SCL	83	48	0	96	48	5
STR	83	48	7
SCR	83	48	7	96	48	2
TAP	83	96	1
TAP	83	96	6
TAP	83	144	0
TAP	83	144	7
TAP	83	240	7
TAP	83	288	7
TAP	83	336	0
STR	84	0	6
SI_	84	0	6	96	48	1
TAP	84	48	6
STR	84	96	2
SI_	84	96	2	96	48	5
TAP	84	144	2
STR	84	192	1
SI_	84	192	1	96	48	6
TAP	84	240	1
STR	84	288	2
SI_	84	288	2	96	48	5
TAP	84	336	2
STR	85	0	1
SI_	85	0	1	96	48	6
TAP	85	48	1
TAP	85	96	2
TAP	85	144	2
TAP	85	192	5
TAP	85	216	4
TAP	85	240	6
TAP	85	264	4
TAP	85	288	5
TAP	85	312	3
TAP	85	336	5
HLD	86	0	3	48
HLD	86	48	2	48
HLD	86	96	1	48
HLD	86	144	2	48
HLD	86	192	3	48
HLD	86	240	4	48
HLD	86	288	5	48
HLD	86	336	6	48
HLD	87	0	5	48
HLD	87	48	4	48
HLD	87	96	3	48
HLD	87	144	2	96
TAP	87	240	0
TAP	87	288	0
HLD	88	0	7	144
TAP	88	48	0
TAP	88	96	1
TAP	88	144	2
HLD	88	192	2	144
TAP	88	240	7
TAP	88	288	7
TAP	88	336	7
TAP	89	0	3
TAP	89	0	4
TAP	89	48	3
TAP	89	48	4
TAP	89	96	3
TAP	89	96	4
TAP	89	144	5
TAP	89	168	4
TAP	89	192	6
TAP	89	216	4
TAP	89	240	5
TAP	89	264	3
TAP	89	288	5
TAP	89	312	4
TAP	89	336	6
STR	90	0	0
SI_	90	0	0	96	48	6
STR	90	96	5
SI_	90	96	5	96	48	2
STR	90	192	0
SI_	90	192	0	96	48	3
TAP	90	240	0
TAP	90	288	7
TAP	90	336	7
STR	91	0	1
SCR	91	0	1	96	96	6
TAP	91	48	1
STR	91	96	6
SCL	91	96	6	96	96	1
TAP	91	144	6
TAP	91	240	7
TAP	91	288	7
TAP	91	336	3
TAP	92	0	4
TAP	92	48	3
TAP	92	96	4
TAP	92	144	3
TAP	92	192	2
TAP	92	192	5
TAP	92	240	2
TAP	92	240	5
TAP	92	288	1
TAP	92	288	6
TAP	92	336	1
TAP	92	336	6
BRK	93	0	0
BRK	93	0	7
BRK	93	48	0
BRK	93	48	7
BRK	93	96	0
BRK	93	96	7
TAP	93	144	2
TAP	93	168	3
TAP	93	192	1
TAP	93	216	3
TAP	93	240	2
TAP	93	264	4
TAP	93	288	2
TAP	93	312	3
TAP	93	336	1
TAP	94	0	6
TAP	94	24	7
TAP	94	48	6
TAP	94	96	1
TAP	94	120	0
TAP	94	144	1
TAP	94	192	6
TAP	94	192	7
TAP	94	240	0
TAP	94	240	5
TAP	94	288	1
TAP	94	288	4
TAP	94	336	0
TAP	94	336	1
TAP	95	0	2
TAP	95	0	7
TAP	95	48	3
TAP	95	48	6
TAP	95	96	0
TAP	95	96	7
BRK	95	144	1
BRK	95	144	6
TAP	95	240	0
TAP	95	288	0
TAP	95	336	5
HLD	96	0	5	96
BRK	96	48	4
BRK	96	96	4
TAP	96	144	1
HLD	96	192	1	96
BRK	96	240	0
BRK	96	288	0
STR	96	336	7
SI_	96	336	7	96	48	4
TAP	97	0	7
TAP	97	48	0
TAP	97	96	1
TAP	97	144	3
TAP	97	168	4
TAP	97	192	2
TAP	97	216	5
TAP	97	240	3
TAP	97	264	4
TAP	97	288	2
TAP	97	312	5
TAP	97	336	3
TAP	98	0	0
TAP	98	0	5
TAP	98	48	1
TAP	98	48	4
TAP	98	96	0
TAP	98	96	5
TAP	98	144	1
TAP	98	144	4
TAP	98	192	2
TAP	98	192	7
TAP	98	240	3
TAP	98	240	6
TAP	98	288	2
TAP	98	288	7
TAP	98	336	3
TAP	98	336	6
TAP	99	0	0
TAP	99	0	7
TAP	99	48	1
TAP	99	48	6
TAP	99	96	2
TAP	99	96	5
STR	99	144	3
SCR	99	144	3	96	96	7
STR	99	144	4
SCL	99	144	4	96	96	0
TAP	100	0	3
TAP	100	0	4
STR	100	96	0
SUL	100	96	0	96	48	4
STR	100	96	7
SUR	100	96	7	96	48	3
BRK	100	192	0
BRK	100	192	7
STR	100	360	3
SUR	100	360	3	96	48	7
STR	100	360	4
SUL	100	360	4	96	48	0
TAP	101	192	5
TAP	101	216	5
TAP	101	240	4
TAP	101	264	4
TAP	101	288	3
TAP	101	312	3

T_REC_TAP	651
T_REC_BRK	45
T_REC_XTP	0
T_REC_HLD	70
T_REC_XHO	0
T_REC_STR	84
T_REC_BST	0
T_REC_XST	0
T_REC_TTP	0
T_REC_THO	0
T_REC_SLD	84
T_REC_ALL	934
T_NUM_TAP	735
T_NUM_BRK	45
T_NUM_HLD	70
T_NUM_SLD	84
T_NUM_ALL	934
T_JUDGE_TAP	780
T_JUDGE_HLD	115
T_JUDGE_SLD	84
T_JUDGE_ALL	979
TTM_EACHPAIRS	150
TTM_SCR_TAP	367500
TTM_SCR_BRK	117000
TTM_SCR_HLD	70000
TTM_SCR_SLD	126000
TTM_SCR_ALL	680500
TTM_SCR_S	655750
TTM_SCR_SS	676000
TTM_RAT_ACV	10066

