VERSION	0.00.00	1.03.00
FES_MODE	0
BPM_DEF	180.000	180.000	180.000	180.000
MET_DEF	4	4
RESOLUTION	384
CLK_DEF	384
COMPATIBLE_CODE	MA2

BPM	0	0	180.000
MET	0	0	4	4

TAP	1	0	0
TAP	1	192	0
TAP	2	0	1
TAP	2	0	3
TAP	2	96	1
TAP	2	96	3
TAP	3	0	7
TAP	3	192	7
TAP	4	0	4
TAP	4	0	6
TAP	4	96	4
TAP	4	96	6
BRK	4	288	0
BRK	4	288	7
TAP	5	0	1
TAP	5	96	1
TAP	5	192	3
TAP	5	288	3
TAP	6	0	5
TAP	6	48	4
TAP	6	96	5
STR	6	144	4
SI_	6	144	4	96	48	0
TAP	7	0	6
TAP	7	96	6
TAP	7	192	4
TAP	7	288	4
TAP	8	0	2
TAP	8	48	3
TAP	8	96	2
STR	8	144	3
SI_	8	144	3	96	48	7
TAP	9	0	1
TAP	9	48	0
TAP	9	96	1
TAP	9	192	6
TAP	9	240	7
TAP	9	288	6
TAP	10	0	3
TAP	10	48	4
TAP	10	96	3
STR	10	144	4
SI_	10	144	4	96	48	0
TAP	11	0	6
TAP	11	48	7
TAP	11	96	6
TAP	11	192	1
TAP	11	240	0
TAP	11	288	1
TAP	12	0	4
TAP	12	48	3
TAP	12	96	4
STR	12	144	3
SI_	12	144	3	96	48	7
TAP	13	0	0
TAP	13	0	1
TAP	13	96	0
TAP	13	96	1
TAP	13	192	6
TAP	13	192	7
TAP	13	288	6
TAP	13	288	7
STR	14	0	1
SUR	14	0	1	96	96	6
STR	14	0	2
SCR	14	0	2	96	96	5
TAP	15	0	4
TAP	15	0	5
TAP	15	96	4
TAP	15	96	5
TAP	15	192	2
TAP	15	192	3
TAP	15	288	2
TAP	15	288	3
STR	16	0	5
SUR	16	0	5	96	96	2
STR	16	0	6
SCR	16	0	6	96	96	1
TAP	17	0	0
TAP	17	96	2
TAP	17	192	4
TAP	17	288	6
STR	18	0	3
SCL	18	0	3	96	96	0
STR	18	0	7
SCL	18	0	7	96	96	4
TAP	19	0	0
TAP	19	48	6
TAP	19	96	2
TAP	19	144	4
TAP	19	192	3
TAP	19	240	5
TAP	19	288	1
TAP	19	336	7
STR	20	0	0
SSL	20	0	0	96	144	4
TAP	21	0	6
TAP	21	0	7
TAP	21	96	4
TAP	21	96	5
TAP	21	192	2
TAP	21	192	3
TAP	21	288	0
TAP	21	288	1
HLD	22	0	7	96
TAP	22	96	6
HLD	22	192	0	96
TAP	22	288	1
TAP	23	0	5
TAP	23	48	7
TAP	23	96	3
TAP	23	144	3
TAP	23	192	2
TAP	23	240	0
TAP	23	288	4
TAP	23	336	4
HLD	24	0	6	96
TAP	24	96	7
HLD	24	192	1	96
TAP	24	288	0
TAP	25	0	0
HLD	25	0	7	288
TAP	25	96	1
TAP	25	192	2
TAP	25	288	3
HLD	26	0	4	96
TAP	26	96	5
HLD	26	192	3	96
TAP	26	288	2
STR	27	0	4
SI_	27	0	4	96	48	1
STR	27	0	5
SI_	27	0	5	96	48	7
STR	27	192	2
SI_	27	192	2	96	48	0
STR	27	192	3
SI_	27	192	3	96	48	6
STR	28	0	7
SSR	28	0	7	96	144	3
STR	29	0	0
SCR	29	0	0	96	192	5
TAP	30	0	7
TAP	30	96	7
BRK	30	192	0
BRK	30	192	7
STR	31	0	7
SCL	31	0	7	96	192	2
TAP	32	0	0
TAP	32	96	0
BRK	32	192	0
BRK	32	192	7
TAP	33	0	0
TAP	33	0	1
TAP	33	96	0
TAP	33	96	1
TAP	33	192	6
TAP	33	192	7
TAP	33	240	6
TAP	33	240	7
TAP	33	336	0
TAP	33	336	6
TAP	34	0	1
TAP	34	0	7
TAP	34	96	1
TAP	34	96	7
TAP	34	144	0
TAP	34	144	6
BRK	34	288	0
BRK	34	288	7
TAP	35	0	1
TAP	35	48	0
TAP	35	96	1
TAP	35	144	0
TAP	35	192	2
TAP	35	240	3
TAP	35	288	2
TAP	35	336	5
TAP	36	0	4
TAP	36	48	5
TAP	36	96	4
TAP	36	144	5
BRK	36	288	1
BRK	36	288	6
TAP	37	0	0
TAP	37	0	4
TAP	37	96	2
TAP	37	96	6
TAP	37	192	0
TAP	37	192	4
TAP	37	288	2
TAP	37	288	6
TAP	37	336	1
TAP	37	336	5
TAP	38	48	3
TAP	38	48	7
TAP	38	144	1
TAP	38	144	5
BRK	38	288	1
BRK	38	288	7
TAP	39	0	6
TAP	39	48	7
TAP	39	96	6
TAP	39	144	7
TAP	39	192	5
TAP	39	240	4
TAP	39	288	5
TAP	39	336	2
TAP	40	0	3
TAP	40	48	2
TAP	40	96	3
TAP	40	144	2
BRK	40	288	0
BRK	40	288	1
TAP	41	0	1
TAP	41	48	4
TAP	41	96	3
TAP	41	144	4
TAP	41	192	2
TAP	41	240	4
TAP	41	288	3
TAP	41	336	4
TAP	42	0	1
TAP	42	96	0
TAP	42	96	7
TAP	42	144	0
TAP	42	144	7
BRK	42	288	6
BRK	42	288	7
TAP	43	0	5
TAP	43	48	0
TAP	43	96	7
TAP	43	144	0
TAP	43	192	6
TAP	43	240	0
TAP	43	288	7
TAP	43	336	0
TAP	44	0	5
TAP	44	96	0
TAP	44	96	7
TAP	44	144	0
TAP	44	144	7
BRK	44	288	0
BRK	44	288	6
TAP	45	0	0
TAP	45	48	1
TAP	45	96	7
TAP	45	144	6
TAP	45	192	2
TAP	45	240	3
TAP	45	288	5
TAP	45	336	4
TAP	46	0	3
TAP	46	48	4
TAP	46	96	3
STR	46	144	3
SI_	46	144	3	96	48	0
STR	46	144	4
SI_	46	144	4	96	48	7
TAP	46	336	1
TAP	47	0	2
TAP	47	48	3
TAP	47	96	4
TAP	47	144	5
TAP	47	240	2
TAP	47	240	6
TAP	47	336	7
TAP	48	0	6
TAP	48	48	5
TAP	48	96	4
TAP	48	144	3
BRK	49	0	3
STR	49	0	4
SSL	49	0	4	96	192	0
TAP	50	0	1
TAP	50	48	0
TAP	50	96	1
TAP	50	144	1
TAP	50	192	6
TAP	50	240	7
TAP	50	288	6
TAP	50	336	6
STR	51	0	1
SUR	51	0	1	96	192	4
TAP	52	0	5
TAP	52	48	4
TAP	52	96	5
TAP	52	144	5
TAP	52	192	2
TAP	52	240	3
TAP	52	288	2
TAP	52	336	2
STR	53	0	5
SUR	53	0	5	96	192	0
HLD	54	0	3	96
HLD	54	0	4	96
HLD	54	192	3	96
HLD	54	192	4	96
STR	56	0	0
SUR	56	0	0	96	480	3
STR	56	0	7
SUL	56	0	7	96	480	4
TAP	58	0	1
TAP	58	48	0
TAP	58	96	2
TAP	58	144	7
TAP	58	192	1
TAP	58	240	0
TAP	58	288	2
TAP	58	336	7
BRK	59	0	0
BRK	59	0	1
BRK	59	96	2
BRK	59	96	7
BRK	59	192	6
BRK	59	192	7
BRK	59	288	0
BRK	59	288	5
TAP	60	0	6
TAP	60	48	7
TAP	60	96	5
TAP	60	144	0
TAP	60	192	6
TAP	60	240	7
TAP	60	288	5
TAP	60	336	0
TAP	61	0	6
TAP	61	0	7
TAP	61	96	0
TAP	61	96	5
TAP	61	192	0
TAP	61	192	1
TAP	61	288	2
TAP	61	288	7
TAP	62	0	2
TAP	62	48	3
TAP	62	96	1
TAP	62	144	4
TAP	62	192	2
TAP	62	240	3
TAP	62	288	1
TAP	62	336	4
TAP	63	0	2
TAP	63	0	3
TAP	63	96	1
TAP	63	96	4
TAP	63	192	4
TAP	63	192	5
TAP	63	288	3
TAP	63	288	6
TAP	64	0	5
TAP	64	48	4
TAP	64	96	6
TAP	64	144	3
TAP	64	192	5
TAP	64	240	4
TAP	64	288	6
TAP	64	336	3
STR	65	0	4
SCL	65	0	4	96	96	1
STR	65	0	5
SCR	65	0	5	96	96	0
STR	66	0	0
SCL	66	0	0	96	192	1
TAP	67	0	0
TAP	67	96	0
BRK	67	192	0
BRK	67	192	7
STR	68	0	7
SCR	68	0	7	96	192	6
TAP	69	0	7
TAP	69	96	7
BRK	69	192	0
BRK	69	192	7
TAP	70	0	0
TAP	70	48	5
TAP	70	96	2
TAP	70	144	4
TAP	70	192	1
TAP	70	240	7
TAP	70	288	3
TAP	70	336	5
TAP	71	0	0
TAP	71	48	4
TAP	71	96	2
TAP	71	144	6
BRK	71	240	0
BRK	71	288	0
STR	72	0	7
SI_	72	0	7	96	48	3
STR	72	96	0
SI_	72	96	0	96	48	4
STR	72	192	7
SI_	72	192	7	96	48	2
STR	72	288	0
SI_	72	288	0	96	48	5
STR	73	0	7
SI_	73	0	7	96	48	3
STR	73	96	0
SI_	73	96	0	96	48	4
BRK	73	240	7
BRK	73	288	7
TAP	74	0	2
TAP	74	48	2
TAP	74	96	3
TAP	74	144	3
TAP	74	192	4
TAP	74	240	4
TAP	74	288	4
TAP	74	336	5
TAP	75	0	5
TAP	75	48	5
TAP	75	96	5
TAP	75	144	5
BRK	75	240	7
BRK	75	288	7
TAP	76	0	5
TAP	76	48	5
TAP	76	96	4
TAP	76	144	4
TAP	76	192	3
TAP	76	240	3
TAP	76	288	3
TAP	76	336	2
TAP	77	0	2
TAP	77	48	2
TAP	77	96	2
TAP	77	144	2
BRK	77	240	0
BRK	77	288	0
TAP	78	0	1
TAP	78	48	3
TAP	78	96	6
TAP	78	144	4
TAP	78	192	1
TAP	78	240	3
TAP	78	288	6
TAP	78	336	4
TAP	79	0	1
TAP	79	48	3
TAP	79	96	6
TAP	79	144	4
BRK	79	240	0
BRK	79	288	0
TAP	80	0	5
TAP	80	48	7
TAP	80	96	2
TAP	80	144	0
TAP	80	192	5
TAP	80	240	7
TAP	80	288	2
TAP	80	336	0
TAP	81	0	5
TAP	81	48	7
TAP	81	96	2
TAP	81	144	0
BRK	81	240	7
BRK	81	288	7
BRK	82	0	0
BRK	82	48	4
BRK	82	96	1
BRK	82	144	5
BRK	82	192	2
BRK	82	240	6
BRK	82	288	3
TAP	82	336	5
TAP	83	0	4
TAP	83	48	3
TAP	83	96	2
TAP	83	144	1
BRK	83	240	0
BRK	83	288	0
STR	84	0	6
SI_	84	0	6	96	48	2
STR	84	96	7
SI_	84	96	7	96	48	1
STR	84	192	5
SI_	84	192	5	96	48	3
STR	84	288	1
SI_	84	288	1	96	48	5
STR	85	0	0
SI_	85	0	0	96	48	6
STR	85	96	2
SI_	85	96	2	96	48	4
BRK	85	240	7
BRK	85	288	7
TAP	86	0	0
TAP	86	48	0
TAP	86	96	1
TAP	86	144	1
TAP	86	192	2
TAP	86	240	2
TAP	86	288	3
TAP	86	336	3
TAP	87	0	4
TAP	87	48	4
TAP	87	96	5
HLD	87	144	5	144
BRK	87	240	6
BRK	87	288	6
TAP	88	0	7
TAP	88	48	7
TAP	88	96	6
TAP	88	144	6
TAP	88	192	5
TAP	88	240	5
TAP	88	288	4
TAP	88	336	4
TAP	89	0	3
TAP	89	48	3
TAP	89	96	2
HLD	89	144	2	144
BRK	89	240	1
BRK	89	288	1
TAP	90	0	0
TAP	90	48	1
TAP	90	96	2
TAP	90	144	3
TAP	90	192	4
TAP	90	240	5
TAP	90	288	6
TAP	90	336	7
TAP	91	0	0
TAP	91	48	1
TAP	91	96	2
HLD	91	144	3	144
BRK	91	240	4
BRK	91	288	4
TAP	92	0	5
TAP	92	48	4
TAP	92	96	3
TAP	92	144	2
TAP	92	192	1
TAP	92	240	0
TAP	92	288	7
TAP	92	336	6
TAP	93	0	5
TAP	93	48	4
TAP	93	96	3
HLD	93	144	2	144
BRK	93	240	1
BRK	93	288	1
TAP	94	0	7
TAP	94	48	0
TAP	94	96	6
TAP	94	144	0
TAP	94	192	5
TAP	94	240	0
TAP	94	288	4
TAP	94	336	0
TAP	95	0	3
TAP	95	48	0
TAP	95	96	2
STR	95	144	0
SI_	95	144	0	96	48	4
BRK	95	240	7
BRK	95	288	7
TAP	96	0	0
TAP	96	48	7
TAP	96	96	1
TAP	96	144	7
TAP	96	192	2
TAP	96	240	7
TAP	96	288	3
TAP	96	336	7
TAP	97	0	4
TAP	97	48	7
TAP	97	96	5
STR	97	144	7
SI_	97	144	7	96	48	3
BRK	97	240	0
BRK	97	288	0
STR	97	336	1
SI_	97	336	1	96	48	5
TAP	98	48	7
TAP	98	96	7
STR	98	144	6
SI_	98	144	6	96	48	2
TAP	98	240	0
TAP	98	288	0
STR	98	336	0
SCR	98	336	0	96	48	3
STR	99	48	7
SCL	99	48	7	96	48	4
STR	99	144	1
SUR	99	144	1	96	144	4
BRK	100	96	3
BRK	100	96	7
BRK	100	192	0
BRK	100	192	4
BRK	101	0	2
BRK	101	0	6
BRK	101	96	0
BRK	101	96	4
BRK	101	192	3
STR	101	192	7
SUL	101	192	7	96	144	5

T_REC_TAP	408
T_REC_BRK	75
T_REC_XTP	0
T_REC_HLD	15
T_REC_XHO	0
T_REC_STR	49
T_REC_BST	0
T_REC_XST	0
T_REC_TTP	0
T_REC_THO	0
T_REC_SLD	49
T_REC_ALL	596
T_NUM_TAP	457
T_NUM_BRK	75
T_NUM_HLD	15
T_NUM_SLD	49
T_NUM_ALL	596
T_JUDGE_TAP	532
T_JUDGE_HLD	38
T_JUDGE_SLD	49
T_JUDGE_ALL	619
TTM_EACHPAIRS	76
TTM_SCR_TAP	228500
TTM_SCR_BRK	195000
TTM_SCR_HLD	15000
TTM_SCR_SLD	73500
TTM_SCR_ALL	512000
TTM_SCR_S	489400
TTM_SCR_SS	504500
TTM_RAT_ACV	10148

