VERSION	0.00.00	1.03.00
FES_MODE	0
BPM_DEF	180.000	180.000	180.000	180.000
MET_DEF	4	4
RESOLUTION	384
CLK_DEF	384
COMPATIBLE_CODE	MA2

BPM	0	0	180.000
MET	0	0	4	4

TAP	5	0	0
TAP	5	192	1
TAP	6	0	2
TAP	6	192	3
TAP	7	0	4
TAP	7	192	5
TAP	8	0	6
TAP	8	192	7
TAP	9	0	7
TAP	9	192	6
TAP	10	0	5
TAP	10	192	4
TAP	11	0	3
TAP	11	192	2
TAP	12	0	1
TAP	12	192	0
TAP	13	0	1
TAP	13	96	1
TAP	13	192	0
TAP	13	288	0
TAP	14	0	1
TAP	14	192	1
TAP	15	0	6
TAP	15	96	6
TAP	15	192	7
TAP	15	288	7
TAP	16	0	6
TAP	16	192	6
TAP	17	0	2
TAP	17	96	2
TAP	17	192	3
TAP	17	288	3
TAP	18	0	2
TAP	18	192	2
TAP	19	0	5
TAP	19	96	5
TAP	19	192	4
TAP	19	288	4
TAP	20	0	5
TAP	20	192	5
TAP	21	0	2
TAP	21	96	3
TAP	21	192	2
TAP	21	288	3
HLD	22	0	2	192
TAP	22	192	3
TAP	23	0	5
TAP	23	96	4
TAP	23	192	5
TAP	23	288	4
HLD	24	0	5	192
TAP	24	192	4
TAP	25	0	6
TAP	25	96	7
TAP	25	192	6
TAP	25	288	7
HLD	26	0	6	192
TAP	26	192	7
TAP	27	0	1
TAP	27	96	0
TAP	27	192	1
TAP	27	288	0
HLD	28	0	1	192
TAP	28	192	0
TAP	30	0	2
TAP	30	0	3
TAP	30	96	2
TAP	30	96	3
TAP	30	192	2
TAP	30	192	3
TAP	32	0	4
TAP	32	0	5
TAP	32	96	4
TAP	32	96	5
TAP	32	192	4
TAP	32	192	5
TAP	33	0	7
TAP	33	96	6
TAP	33	192	5
TAP	33	288	4
TAP	34	0	2
TAP	34	96	3
TAP	34	192	2
TAP	34	192	3
TAP	35	0	0
TAP	35	96	1
TAP	35	192	2
TAP	35	288	3
TAP	36	0	5
TAP	36	96	4
TAP	36	192	4
TAP	36	192	5
TAP	37	0	3
TAP	37	96	2
TAP	37	192	1
TAP	37	288	0
TAP	38	0	6
TAP	38	96	7
TAP	38	192	6
TAP	38	192	7
TAP	39	0	4
TAP	39	96	5
TAP	39	192	6
TAP	39	288	7
TAP	40	0	1
TAP	40	96	0
TAP	40	192	0
TAP	40	192	1
TAP	41	0	7
TAP	41	96	6
TAP	41	192	5
TAP	41	288	4
TAP	42	0	3
TAP	42	96	2
TAP	42	192	0
TAP	42	192	1
TAP	43	0	0
TAP	43	96	1
TAP	43	192	2
TAP	43	288	3
TAP	44	0	4
TAP	44	96	5
TAP	44	192	6
TAP	44	192	7
TAP	45	0	5
TAP	45	96	6
TAP	45	192	7
TAP	45	288	0
TAP	46	0	1
TAP	46	96	2
TAP	46	192	3
TAP	46	192	4
TAP	47	0	2
TAP	47	96	1
TAP	47	192	0
TAP	47	288	7
TAP	48	0	6
TAP	48	96	5
STR	48	192	3
SCL	48	192	3	96	288	0
STR	48	192	4
SCR	48	192	4	96	288	7
TAP	50	0	1
TAP	50	96	1
TAP	50	192	0
TAP	50	288	0
STR	51	0	1
SI_	51	0	1	96	192	4
TAP	52	0	6
TAP	52	96	6
TAP	52	192	7
TAP	52	288	7
STR	53	0	6
SI_	53	0	6	96	192	3
TAP	54	0	1
TAP	54	96	1
TAP	54	192	0
TAP	54	288	0
STR	55	0	1
SCR	55	0	1	96	192	4
TAP	56	0	6
TAP	56	96	6
TAP	56	192	7
TAP	56	288	7
STR	57	0	6
SCL	57	0	6	96	192	3
TAP	58	0	1
TAP	58	96	0
TAP	58	192	2
TAP	58	288	7
STR	59	0	0
SI_	59	0	0	96	192	5
STR	59	0	1
SI_	59	0	1	96	192	4
TAP	60	0	6
TAP	60	96	7
TAP	60	192	5
TAP	60	288	0
STR	61	0	6
SI_	61	0	6	96	192	3
STR	61	0	7
SI_	61	0	7	96	192	2
TAP	62	0	1
TAP	62	96	0
TAP	62	192	2
TAP	62	288	7
STR	63	0	0
SCL	63	0	0	96	192	5
STR	63	0	1
SCR	63	0	1	96	192	4
TAP	64	0	6
TAP	64	96	7
TAP	64	192	5
TAP	64	288	0
STR	65	0	6
SCL	65	0	6	96	192	3
STR	65	0	7
SCR	65	0	7	96	192	2
TAP	67	0	4
TAP	67	0	5
TAP	67	96	4
TAP	67	96	5
BRK	67	192	2
BRK	67	192	3
TAP	69	0	2
TAP	69	0	3
TAP	69	96	2
TAP	69	96	3
BRK	69	192	4
BRK	69	192	5
TAP	70	0	2
TAP	70	96	4
TAP	70	192	2
TAP	70	288	2
TAP	71	0	3
TAP	71	96	4
TAP	71	192	6
TAP	71	192	7
TAP	72	0	5
TAP	72	96	3
TAP	72	192	5
TAP	72	288	5
TAP	73	0	4
TAP	73	96	3
TAP	73	192	0
TAP	73	192	1
TAP	74	0	6
TAP	74	96	0
TAP	74	192	6
TAP	74	288	6
TAP	75	0	7
TAP	75	96	0
TAP	75	192	2
TAP	75	192	3
TAP	76	0	1
TAP	76	96	7
TAP	76	192	1
TAP	76	288	1
TAP	77	0	0
TAP	77	96	7
TAP	77	192	4
TAP	77	192	5
TAP	78	0	6
TAP	78	96	5
TAP	78	192	4
TAP	78	288	3
TAP	79	0	2
TAP	79	96	3
TAP	79	144	3
TAP	80	0	1
TAP	80	96	2
TAP	80	192	3
TAP	80	288	4
TAP	81	0	5
TAP	81	96	4
TAP	81	144	4
TAP	82	0	5
TAP	82	96	6
TAP	82	192	7
TAP	82	288	0
TAP	83	0	1
TAP	83	96	0
TAP	83	144	0
TAP	84	0	2
TAP	84	96	1
TAP	84	192	0
TAP	84	288	7
TAP	85	0	6
TAP	85	96	7
TAP	85	144	7
TAP	86	0	1
TAP	86	96	3
TAP	86	192	5
TAP	86	288	7
TAP	87	0	2
TAP	87	96	6
TAP	87	192	4
TAP	87	288	0
TAP	87	288	1
TAP	88	0	6
TAP	88	96	4
TAP	88	192	2
TAP	88	288	0
TAP	89	0	5
TAP	89	96	1
TAP	89	192	3
TAP	89	288	6
TAP	89	288	7
TAP	90	0	0
TAP	90	96	2
TAP	90	192	5
TAP	90	288	1
TAP	91	0	4
TAP	91	96	3
TAP	91	192	7
TAP	91	288	0
TAP	91	288	6
TAP	92	0	7
TAP	92	96	5
TAP	92	192	2
TAP	92	288	6
TAP	93	0	3
TAP	93	96	4
TAP	93	192	0
TAP	93	288	1
TAP	93	288	7
TAP	94	0	0
TAP	94	96	3
TAP	94	192	5
TAP	94	288	0
TAP	94	288	1
TAP	95	0	7
TAP	95	96	4
TAP	95	192	2
TAP	95	288	6
TAP	95	288	7
TAP	96	0	1
TAP	96	96	7
TAP	96	192	0
TAP	96	192	1
TAP	96	288	4
TAP	96	288	5
TAP	97	0	6
TAP	97	96	0
TAP	97	192	6
TAP	97	192	7
TAP	97	288	2
TAP	97	288	3
TAP	98	0	0
TAP	98	96	3
TAP	98	96	7
TAP	98	192	2
TAP	98	192	6
TAP	98	288	1
TAP	98	288	5
TAP	99	0	7
TAP	99	96	0
TAP	99	96	4
TAP	99	192	1
TAP	99	192	5
TAP	99	288	2
TAP	99	288	6
TAP	100	96	3
TAP	100	96	4
TAP	100	192	2
TAP	100	192	5
TAP	100	288	1
TAP	100	288	6
STR	101	0	0
SSL	101	0	0	96	288	4

T_REC_TAP	312
T_REC_BRK	4
T_REC_XTP	0
T_REC_HLD	4
T_REC_XHO	0
T_REC_STR	15
T_REC_BST	0
T_REC_XST	0
T_REC_TTP	0
T_REC_THO	0
T_REC_SLD	15
T_REC_ALL	350
T_NUM_TAP	327
T_NUM_BRK	4
T_NUM_HLD	4
T_NUM_SLD	15
T_NUM_ALL	350
T_JUDGE_TAP	331
T_JUDGE_HLD	16
T_JUDGE_SLD	15
T_JUDGE_ALL	362
TTM_EACHPAIRS	47
TTM_SCR_TAP	163500
TTM_SCR_BRK	10400
TTM_SCR_HLD	4000
TTM_SCR_SLD	22500
TTM_SCR_ALL	200400
TTM_SCR_S	194000
TTM_SCR_SS	200000
TTM_RAT_ACV	10020

